Today is a free download without charge Download

Евгений Карташов.Бюджетная фотостудия или секреты фотовспышек [2014, RUS]

Reply to topic
 
Author
Message

Omen ®

Longevity: 6 years 9 months

Posts: 181090

Торрент-статистика

Post 13-Dec-2014 17:57

[Quote]

Евгений Карташов
Бюджетная фотостудия или секреты фотовспышек
- Автор (режиссер): Евгений Карташов
Жанр: Обучающее видео и мультимедийный материал
Продолжительность: 01:58:45+00:28:47
Качество видео: PCRec
Видеокодек: AVC (Н264)
Битрейт видео: ~3000 Kbps
Размер кадра: 1920*1080
Аудиокодек: AAC
Битрейт аудио: 93.4 Kbps
Описание:
Если вы хотите пофотографировать дома с качественным светом, или хотите выехать на природу, а может быть вас позвали пофотографировать детей в детском саду, то здесь нельзя положиться на обычный студийный свет, который занимает много места, требует подключения к электросети да и по сути своей не предназначен для перетаскивания с места на место.
Здесь на помощь приходит портативная студия, которая состоит из нескольких внешних вспышек, комплекта аккумуляторов, синхронизатора и нескольких стоек с зонтами или другими насадками для получения различного характера света. Проще говоря, портативная студия это - набор импульсного света, с которым вы можете творить в любом удобном месте, в любое удобное время.
Евгений Карташов. Он научит вас, как с минимальными затратами на свет получать фотографии, как в полноценной студии, при этом оставаясь мобильным.

Содержание курса:

- Типы вспышек и принципы их работы
- Крепления и стойка
- Синхронизаторы
- Параметры вспышек
- Модификаторы для вспышки
- Базовые настройки камеры
- Жесткость и мягкость света
- Рисующий и заполняющий свет
- Моделирующий и контровый свет
- Согласование искусственного и окружающего освещения
- Фоновое освещение
- Схема бабочка (голливудская)
- Схема "Петля"
- Схема "Рембрандт"
- Короткий и длинный свет (узкий или широкий)
- Съемка в стиле "Высокий ключ"
- Различные типы зонтов
- Съемка ростового портрета на белом фоне
- Съемка портретов на черном фоне
- Съемка при наличии источников с разной цветовой температурой
- Создание спецэффектов (блики и боке)
- Как снимать при смешанном освещении
+Бонус Двухцветное HDR-тонирование

МедиаИнфо:

General
Complete name : H:\Бюджетная фотостудия или секреты фотовспышек (2014)\Бюджетная фотостудия\rs\video\1.mp4
Format : MPEG-4
Format profile : Base Media / Version 2
Codec ID : mp42
File size : 119 MiB
Duration : 5mn 20s
Overall bit rate mode : Variable
Overall bit rate : 3 119 Kbps
Movie name : NNM-Club
Encoded date : UTC 2014-07-21 09:46:54
Tagged date : UTC 2014-07-21 09:46:55
©TIM : 00:00:00:00
©TSC : 30000
©TSZ : 1001
Video
ID : 1
Format : AVC
Format/Info : Advanced Video Codec
Format profile : [url=mailto:[email protected]][email protected][/url]
Format settings, CABAC : Yes
Format settings, ReFrames : 3 frames
Format settings, GOP : M=4, N=29
Codec ID : avc1
Codec ID/Info : Advanced Video Coding
Duration : 5mn 20s
Bit rate mode : Constant
Bit rate : 3 000 Kbps
Width : 1 920 pixels
Height : 1 080 pixels
Display aspect ratio : 16:9
Frame rate mode : Constant
Frame rate : 29.970 fps
Standard : NTSC
Color space : YUV
Chroma subsampling : 4:2:0
Bit depth : 8 bits
Scan type : Progressive
Bits/(Pixel*Frame) : 0.048
Stream size : 115 MiB (97%)
Language : English
Encoded date : UTC 2014-07-21 09:46:54
Tagged date : UTC 2014-07-21 09:46:54
Audio
ID : 2
Format : AAC
Format/Info : Advanced Audio Codec
Format profile : LC
Codec ID : 40
Duration : 5mn 20s
Source duration : 5mn 20s
Bit rate mode : Variable
Bit rate : 93.4 Kbps
Maximum bit rate : 135 Kbps
Channel count : 1 channel
Channel positions : Front: C
Sampling rate : 48.0 KHz
Compression mode : Lossy
Stream size : 3.57 MiB (3%)
Source stream size : 3.57 MiB (3%)
Language : English
Encoded date : UTC 2014-07-21 09:46:54
Tagged date : UTC 2014-07-21 09:46:54
Скриншоты:        
Other forum [Profile] [PM]
Similar theme
Forum Topic Author Torrent Replies Last Post
./templates/default/images/folder_dl.gif Обучающее видео Евгений Попов | Настройка и оптимизация Windows 10 (2017) PCRec Omen
1 | 0

0 | 3871

85

2016-03-09 18:12
Omen Latest
Display posts from previous:    
Reply to topic

The time now is: Today 06:01

All times are GMT + 3 Hours



You cannot post new topics in this forum
You cannot reply to topics in this forum
You cannot edit your posts in this forum
You cannot delete your posts in this forum
You cannot vote in polls in this forum
You cannot attach files in this forum
You cannot download files in this forum