Сегодня идет свободное скачивание без начисления Download

День злого оружия / Day of the Evil Gun [Вестерн, Джерри Торпе/Jerry Thorpe] (1968) DVDRip

Ответить на тему
 
Автор
Сообщение

Nugeiro ®

Пол:

Стаж: 5 лет 8 месяцев

Сообщений: 2242

Откуда: Украина, Шостка

Торрент-статистика

Пост 13-Фев-2012 11:20

[Цитировать]

День злого оружия / Day of the Evil Gun (1968) DVDRip- Русское название: День злого оружия
Оригинальное название: Day of the Evil Gun
Год выхода: 1968
Режиссер: Джерри Торпе / Jerry Thorpe
В ролях: Гленн Форд, Артур Кеннеди, Дин Джэггер, Джон Андерсон, Пол Фикс, Nico Minardos, Гарри Дин Стэнтон, Пилар Пеллисер, Парли Баэр, Ройал Дэн
Страна производства: США
Продолжительность: 90 мин. / 01:30
Продюсер: Ллойд Ричардс, Джерри Торпе
Сценарий: Чарльз Маркиз Уоррен, Эрик Берковичи
Премьера в мире: 1 марта 1968
Жанр: вестерн
Описание: Возвратившись после трехлетнего отсутствия, ранчер узнает, что его жену и ребенка увели индейцы. С помощью знакомого ковбоя он отправляется на их поиски. Но, напав на след похитителей, он обнаруживает, что у него есть серьезный соперник, с которым он вступает в смертельную схватку.
Перевод: Одноголосый закадровый - Н. Золотухин

Видеокодек: DivX 5
Битрейт видео: ~941 Kbps
Размер кадра: 672x272
Качество видео: DVDRip
Аудиокодек: MP3
Битрейт аудио: 128 Kbps, CBR, 2 ch

MediaInfo

Код:
Общее
Полное имя : F:\Фильмы\День злого оружия\den_zlogo_oruzhiya.avi
Формат : AVI
Формат/Информация : Audio Video Interleave
Размер файла : 697 Мбайт
Продолжительность : 1 ч. 30 м.
Общий поток : 1079 Кбит/сек
Программа кодирования : VirtualDubMod 1.5.10.2 (build 2540/release)
Библиотека кодирования : VirtualDubMod build 2540/release
Видео
Идентификатор : 0
Формат : MPEG-4 Visual
Профиль формата : Advanced [email protected]
Параметр BVOP формата : 2
Параметр QPel формата : Нет
Параметр GMC формата : Без точки перехода
Параметр матрицы формата : Default (MPEG)
Режим смешивания : Сжатый битовый поток
Идентификатор кодека : DX50
Идентификатор кодека/Подсказка : DivX 5
Продолжительность : 1 ч. 30 м.
Битрейт : 941 Кбит/сек
Ширина : 672 пикселя
Высота : 272 пикселя
Соотношение сторон : 2,471
Частота кадров : 25,000 кадров/сек
Цветовое пространство : YUV
Субдискретизация насыщенности : 4:2:0
Битовая глубина : 8 бит
Тип развёртки : Прогрессивная
Метод сжатия : С потерями
Бит/(Пиксели*Кадры) : 0.206
Размер потока : 608 Мбайт (87%)
Библиотека кодирования : XviD 1.2.1 (UTC 2008-12-04)
Аудио
Идентификатор : 1
Формат : MPEG Audio
Версия формата : Version 1
Профиль формата : Layer 3
Режим : Joint stereo
Расширение режима : MS Stereo
Идентификатор кодека : 55
Идентификатор кодека/Подсказка : MP3
Продолжительность : 1 ч. 30 м.
Вид битрейта : Постоянный
Битрейт : 128 Кбит/сек
Каналы : 2 канала
Частота : 48,0 КГц
Метод сжатия : С потерями
Размер потока : 82,7 Мбайт (12%)
Выравнивание : Соединение по промежуткам
Продолжительность промежутка : 40 мс. (1,00 видеокадр)
Время предзагрузки промежутка : 504 мс.
Скриншоты:
         
         

_________________


Последний раз редактировалось: Nugeiro (2012-02-13 11:39), всего редактировалось 2 раз(а)
Вне форума [Профиль] [ЛС]

vlad41

Стаж: 4 года 10 месяцев

Сообщений: 3

Торрент-статистика

Пост 13-Фев-2012 16:13 (спустя 4 часа)

[Цитировать]

Спасибоооо1 А будет ли кто на раздаче?
Вне форума [Профиль] [ЛС]

Nugeiro ®

Пол:

Стаж: 5 лет 8 месяцев

Сообщений: 2242

Откуда: Украина, Шостка

Торрент-статистика

Пост 13-Фев-2012 16:28 (спустя 15 минут)

[Цитировать]

Цитата:
Сидов: 27
Этого мало?

_________________
Вне форума [Профиль] [ЛС]
Показать сообщения:    
Ответить на тему

Текущее время: Сегодня 17:33

Часовой пояс: GMT + 3



Вы не можете начинать темы
Вы не можете отвечать на сообщения
Вы не можете редактировать свои сообщения
Вы не можете удалять свои сообщения
Вы не можете голосовать в опросах
Вы не можете прикреплять файлы к сообщениям
Вы не можете скачивать файлы