Сегодня идет свободное скачивание без начисления Download

Силы природы / Forces of Nature [Комедия, Мелодрама, Бронуэн Хьюз/Bronwen Hughes] (1999) DVDRip

Ответить на тему
 
Автор
Сообщение

Nugeiro ®

Пол:

Стаж: 5 лет 8 месяцев

Сообщений: 2242

Откуда: Украина, Шостка

Торрент-статистика

Пост 13-Фев-2012 11:39

[Цитировать]

Силы природы / Forces of Nature- Русское название: Силы природы
Оригинальное название: Forces of Nature
Год выпуска: 1999
Жанр: Комедия, Мелодрама
Описание фильма:
У героя этой картины, Бена, в запасе всего два дня, чтобы добраться из Нью-Йорка в городок Саванна, что в штате Джорджия, и успеть на собственную свадьбу с прекрасной девушкой. Но внезапно на его пути возникает непреодолимое препятствие в лице разбушевавшейся природы. Самолет, в котором герой отправляется к своей невесте, попадает в аварию. Теперь Бену и его новой эксцентричной попутчице, по имени Сара, предстоит захватывающее совместное путешествие. Атмосферные катаклизмы и дорожные происшествия продолжают неотступно преследовать их в пути. А тут еще Бен с ужасом начинает осознавать, что влюбляется в Сару…
Режиссер: Бронуэн Хьюз/Bronwen Hughes
Актеры: Сандра Буллок / Sandra Bullock, Бен Эффлек / Ben Affleck, Стив Зан / Steve Zahn, Мора Тирни / Maura Tierney, Блайт Дэннер / Blythe Danner, Ронни Кокс / Ronny Cox, Нора Данн / Nora Dunn...
Качество видео: DVDRip
Продолжительность: 01:41:33
Субтитры: Русские (отдельно)
Перевод: Профессиональный (многоголосый, закадровый)
Видео: XviD, 704x384 (1.83:1), 1976 kbps avg, 0.29 bit/pix
Аудио1: AC3 Dolby Digital, 3/2 (L,C,R,l,r)+LFE ch, 448.00 kbps avg | MVO
Аудио2: AC3 Dolby Digital, 3/2 (L,C,R,l,r)+LFE ch, 448.00 kbps avg | Orig
(английский)

MediaInfo:

Код:
Общее
Полное имя                       : C:\ZIM\Torrents\ForcesofNature\Siliy_prirodiy_DVDRip\Siliy.prirodiy.1999.DVDRip.avi
Формат                           : AVI
Формат/Информация                : Audio Video Interleave
Профиль формата                  : OpenDML
Размер файла                     : 2,05 Гбайт
Продолжительность                : 1 ч. 41 м.
Общий поток                      : 2891 Кбит/сек
Программа кодирования            : VirtualDubMod 1.5.10.2 (build 2540/release)
Библиотека кодирования           : VirtualDubMod build 2540/release
Видео
Идентификатор                    : 0
Формат                           : MPEG-4 Visual
Профиль формата                  : Advanced [email protected]
Параметр BVOP формата            : 2
Параметр QPel формата            : Нет
Параметр GMC формата             : Без точки перехода
Параметр матрицы формата         : Default (H.263)
Режим смешивания                 : Сжатый битовый поток
Идентификатор кодека             : XVID
Идентификатор кодека/Подсказка   : XviD
Продолжительность                : 1 ч. 41 м.
Битрейт                          : 1976 Кбит/сек
Ширина                           : 704 пикселя
Высота                           : 384 пикселя
Соотношение сторон               : 16:9
Частота кадров                   : 25,000 кадров/сек
Цветовое пространство            : YUV
Субдискретизация насыщенности    : 4:2:0
Битовая глубина                  : 8 бит
Тип развёртки                    : Прогрессивная
Метод сжатия                     : С потерями
Бит/(Пиксели*Кадры)              : 0.292
Размер потока                    : 1,40 Гбайт (68%)
Библиотека кодирования           : XviD 1.2.1 (UTC 2008-12-04)
Аудио #1
Идентификатор                    : 1
Формат                           : AC-3
Формат/Информация                : Audio Coding 3
Расширение режима                : CM (complete main)
Идентификатор кодека             : 2000
Продолжительность                : 1 ч. 41 м.
Вид битрейта                     : Постоянный
Битрейт                          : 448 Кбит/сек
Каналы                           : 6 каналов
Расположение каналов             : Front: L C R, Side: L R, LFE
Частота                          : 48,0 КГц
Битовая глубина                  : 16 бит
Метод сжатия                     : С потерями
Задержка видео                   : 437 мс.
Размер потока                    : 325 Мбайт (15%)
Выравнивание                     : Разделение по промежуткам
Продолжительность промежутка     : 40  мс. (1,00 видеокадр)
Время предзагрузки промежутка    : 500  мс.
Аудио #2
Идентификатор                    : 2
Формат                           : AC-3
Формат/Информация                : Audio Coding 3
Расширение режима                : CM (complete main)
Идентификатор кодека             : 2000
Продолжительность                : 1 ч. 41 м.
Вид битрейта                     : Постоянный
Битрейт                          : 448 Кбит/сек
Каналы                           : 6 каналов
Расположение каналов             : Front: L C R, Side: L R, LFE
Частота                          : 48,0 КГц
Битовая глубина                  : 16 бит
Метод сжатия                     : С потерями
Задержка видео                   : 437 мс.
Размер потока                    : 325 Мбайт (15%)
Выравнивание                     : Разделение по промежуткам
Продолжительность промежутка     : 40  мс. (1,00 видеокадр)
Время предзагрузки промежутка    : 500  мс.
         
       

_________________
Вне форума [Профиль] [ЛС]
Показать сообщения:    
Ответить на тему

Текущее время: Сегодня 16:42

Часовой пояс: GMT + 3



Вы не можете начинать темы
Вы не можете отвечать на сообщения
Вы не можете редактировать свои сообщения
Вы не можете удалять свои сообщения
Вы не можете голосовать в опросах
Вы не можете прикреплять файлы к сообщениям
Вы не можете скачивать файлы