Сегодня идет свободное скачивание без начисления Download

Неистребимый шпион / Spy Hard (Рик Фридберг / Rick Friedberg) [1996, США, комедия, DVDRip]

Ответить на тему
 
Автор
Сообщение

Nugeiro ®

Пол:

Стаж: 5 лет 8 месяцев

Сообщений: 2242

Откуда: Украина, Шостка

Торрент-статистика

Пост 14-Фев-2012 13:03

[Цитировать]

Неистребимый шпион / Spy Hard- Русское название: Неистребимый шпион
Оригинальное название: Spy Hard
Год выпуска: 1996
Жанр: Комедия
Описание фильма:
Секретный агент ВД-40 должен расстроить коварный план суперврага генерала Ранкора - сумасшедшего психопата, потерявшего руки во время взрыва — но он вооружен и очень опасен!
Миссия суперагента — спасти мир от разрушения, вызволить дочь своей погибшей много лет назад подруги, и, конечно же, внедриться в ряды террористов вместе со своей сексуальной напарницей.
Режиссер: Рик Фридберг / Rick Friedberg
Актеры: Лесли Нильсен, Николетт Шеридан, Чарльз Дёрнинг, Марша Гэй Харден, Бэрри Боствик, Джон Алес, Энди Гриффит, Илья Баскин, Мейсон Гэмбл, Карлос Лаучу, Халк Хоган
Качество видео: DVDRip
Продолжительность: 01:20:55
Перевод: Профессиональный (многоголосый, закадровый) / Авторский (одноголосый, закадровый) Диктор CDV
Видео: XviD, 704x384 (1.83:1), 23.976 fps, 2188 kbps, 0.33 bit/pix
Аудио 1: 48 kHz, AC3 Dolby Digital, 2/0 (L,R) ch, 192 kbps | MVO
Аудио 2: 48 kHz, AC3 Dolby Digital, 2/0 (L,R) ch, 192 kbps | AVO

MediaInfo:

Код:
Общее
Полное имя                       : C:\ZIM\Torrents\SpyHard\Neistrebimyj.shpion.1996.DVDRip.avi
Формат                           : AVI
Формат/Информация                : Audio Video Interleave
Размер файла                     : 1,46 Гбайт
Продолжительность                : 1 ч. 20 м.
Общий поток                      : 2586 Кбит/сек
Программа кодирования            : VirtualDubMod 1.5.10.3 | [url=http://www.virtualdub-fr.org]www.virtualdub-fr.org[/url] || (build 2550/release)
Библиотека кодирования           : VirtualDubMod build 2550/release
Видео
Идентификатор                    : 0
Формат                           : MPEG-4 Visual
Профиль формата                  : Advanced [email protected]
Параметр BVOP формата            : 1
Параметр QPel формата            : Нет
Параметр GMC формата             : Без точки перехода
Параметр матрицы формата         : Default (MPEG)
Идентификатор кодека             : XVID
Идентификатор кодека/Подсказка   : XviD
Продолжительность                : 1 ч. 20 м.
Битрейт                          : 2188 Кбит/сек
Ширина                           : 704 пикселя
Высота                           : 384 пикселя
Соотношение сторон               : 16:9
Частота кадров                   : 23,976 кадра/сек
Цветовое пространство            : YUV
Субдискретизация насыщенности    : 4:2:0
Битовая глубина                  : 8 бит
Тип развёртки                    : Прогрессивная
Метод сжатия                     : С потерями
Бит/(Пиксели*Кадры)              : 0.338
Размер потока                    : 1,24 Гбайт (85%)
Библиотека кодирования           : XviD 58
Аудио #1
Идентификатор                    : 1
Формат                           : AC-3
Формат/Информация                : Audio Coding 3
Расширение режима                : CM (complete main)
Идентификатор кодека             : 2000
Продолжительность                : 1 ч. 20 м.
Вид битрейта                     : Постоянный
Битрейт                          : 192 Кбит/сек
Каналы                           : 2 канала
Расположение каналов             : Front: L R
Частота                          : 48,0 КГц
Битовая глубина                  : 16 бит
Метод сжатия                     : С потерями
Размер потока                    : 111 Мбайт (7%)
Выравнивание                     : Разделение по промежуткам
Продолжительность промежутка     : 42  мс. (1,00 видеокадр)
Время предзагрузки промежутка    : 500  мс.
Аудио #2
Идентификатор                    : 2
Формат                           : AC-3
Формат/Информация                : Audio Coding 3
Расширение режима                : CM (complete main)
Идентификатор кодека             : 2000
Продолжительность                : 1 ч. 20 м.
Вид битрейта                     : Постоянный
Битрейт                          : 192 Кбит/сек
Каналы                           : 2 канала
Расположение каналов             : Front: L R
Частота                          : 48,0 КГц
Битовая глубина                  : 16 бит
Метод сжатия                     : С потерями
Размер потока                    : 111 Мбайт (7%)
Выравнивание                     : Разделение по промежуткам
Продолжительность промежутка     : 42  мс. (1,00 видеокадр)
Время предзагрузки промежутка    : 500  мс.
         
         

_________________
Вне форума [Профиль] [ЛС]
Показать сообщения:    
Ответить на тему

Текущее время: Сегодня 22:53

Часовой пояс: GMT + 3



Вы не можете начинать темы
Вы не можете отвечать на сообщения
Вы не можете редактировать свои сообщения
Вы не можете удалять свои сообщения
Вы не можете голосовать в опросах
Вы не можете прикреплять файлы к сообщениям
Вы не можете скачивать файлы