Сегодня идет свободное скачивание без начисления Download

Криминальное чтиво / Pulp Fiction (Квентин Тарантино / Quentin Tarantino) [1994, США, триллер, криминал, BDRip] DUB (Miramax), MVO (West Video), AVO (Д. Пучков, А. Гаврилов, Ю. Живов, В. Горчаков) + Original (Eng)

Ответить на тему
 
Автор
Сообщение

Omen ®

Стаж: 4 года 9 месяцев

Сообщений: 190645

Торрент-статистика

Пост 23-Дек-2014 12:29

[Цитировать]

Криминальное чтиво / Pulp Fiction
« Just because you are a character doesn't mean you have character »
- Год выпуска: 1994
Производство: США | Miramax Films, Jersey Films, A Band Apart
Жанр: Триллер, Комедия, Криминал
Режиссер: Квентин Тарантино / Quentin Tarantino
Продюсер: Лоуренс Бендер, Дэнни ДеВито, Ричард Н. Гладштейн
Актеры: Джон Траволта, Сэмюэл Л. Джексон, Брюс Уиллис, Ума Турман, Винг Реймз, Тим Рот, Харви Кейтель, Квентин Тарантино, Питер Грин, Аманда Пламмер, Эрик Столц, Мария де Медейруш, Розанна Аркетт, Кристофер Уокен
Описание фильма: Двое бандитов Винсент Вега и Джулс Винфилд проводят время в философских беседах в перерыве между разборками и «решением проблем» с должниками своего криминального босса Марселласа Уоллеса. Параллельно разворачивается три истории. В первой из них Винсент присматривает за женой Марселласа Мией и спасает ее от передозировки наркотиков. Во второй рассказывается о Бутче Кулидже, боксере, нанятом Уоллесом, чтобы сдать бой, но обманувшим его. Третья история объединяет первые две - в кафе парочка молодых неудачливых грабителей - Пампкин и Хани Бани делают попытку ограбления, но Джулс останавливает их.
Перевод: Профессиональный дублированный, профессиональный многоголосый, авторский
Вид субтитров: Вшитые отключаемые
Язык субтитров: Русский, английский- -Дата мировой премьеры: 12 мая 1994
Дата российской премьеры: 27 декабря 2012, «Каравелла DDC»
Дата выхода DVD релиза: 31 января 2002, «West Video»
Дата выхода Blu-ray релиза: 11 сентября 2013, «Кармен Видео»
Продолжительность: 02:34:20
Возраст 18+: Зрителям, достигшим 18 лет
Рейтинг MPAA R: Лицам до 17 лет обязательно присутствие взрослого
Качество видео: BDRip [H.264]
Видео: MPEG-4 AVC/H.264, 3500 Kbps, 1024 x 434
Аудио 1: Русский AC3 5.1, 384 Kbps, 48.0 KHz (Полное дублирование) Miramax
Аудио 2: Русский AC3 5.1, 384 Kbps, 48.0 KHz (Многоголосый закадровый) West Video
Аудио 3: Русский AC3 5.1, 384 Kbps, 48.0 KHz (Одноголосый закадровый) Д. Пучков
Аудио 4: Русский AC3 5.1, 384 Kbps, 48.0 KHz (Одноголосый закадровый) А. Гаврилов
Аудио 5: Русский AC3 5.1, 384 Kbps, 48.0 KHz (Одноголосый закадровый) Ю. Живов
Аудио 6: Русский AC3 2.0, 192 Kbps, 48.0 KHz (Одноголосый закадровый) В. Горчаков
Аудио 7: Английский AC3 5.1, 448 Kbps, 48.0 KHz (Оригинал)
-

Blu-ray

MediaInfo

Общее
Полное имя : Криминальное чтиво.mkv
Формат : Matroska
Версия формата : Version 1
Размер файла : 6,55 Гбайт
Продолжительность : 2 ч. 34 м.
Общий поток : 6048 Кбит/сек
Дата кодирования : UTC 2014-12-22 07:34:25
Программа кодирования : mkvmerge v2.4.1 ('Use Me') built on Dec 5 2008 18:30:05
Библиотека кодирования : libebml v0.7.7 + libmatroska v0.8.1
Видео
Идентификатор : 1
Формат : AVC
Формат/Информация : Advanced Video Codec
Профиль формата : [url=mailto:[email protected]][email protected][/url]
Параметр CABAC формата : Да
Параметр ReFrames формата : 10 кадров
Идентификатор кодека : V_MPEG4/ISO/AVC
Продолжительность : 2 ч. 34 м.
Битрейт : 3500 Кбит/сек
Ширина : 1024 пикселя
Высота : 434 пикселя
Соотношение сторон : 2,35:1
Режим частоты кадров : Постоянный
Частота кадров : 23,976 кадра/сек
Цветовое пространство : YUV
Субдискретизация насыщенности : 4:2:0
Битовая глубина : 8 бит
Тип развёртки : Прогрессивная
Бит/(Пиксели*Кадры) : 0.328
Размер потока : 3,64 Гбайт (56%)
Заголовок : Криминальное чтиво (1994)
Библиотека кодирования : x264 core 133 r2334 a3ac64b
Настройки программы : cabac=1 / ref=10 / deblock=1:-3:-3 / analyse=0x3:0x133 / me=umh / subme=10 / psy=1 / psy_rd=1.00:0.10 / mixed_ref=1 / me_range=48 / chroma_me=1 / trellis=2 / 8x8dct=1 / cqm=0 / deadzone=21,11 / fast_pskip=0 / chroma_qp_offset=-3 / threads=6 / lookahead_threads=1 / sliced_threads=0 / nr=0 / decimate=1 / interlaced=0 / bluray_compat=0 / constrained_intra=0 / bframes=5 / b_pyramid=2 / b_adapt=2 / b_bias=0 / direct=3 / weightb=1 / open_gop=0 / weightp=2 / keyint=240 / keyint_min=22 / scenecut=40 / intra_refresh=0 / rc_lookahead=40 / rc=2pass / mbtree=1 / bitrate=3500 / ratetol=1.0 / qcomp=0.60 / qpmin=10 / qpmax=51 / qpstep=4 / cplxblur=20.0 / qblur=0.5 / ip_ratio=1.40 / aq=1:1.00
Язык : English
Аудио #1
Идентификатор : 2
Формат : AC-3
Формат/Информация : Audio Coding 3
Расширение режима : CM (complete main)
Параметр Endianness формата : Big
Идентификатор кодека : A_AC3
Продолжительность : 2 ч. 34 м.
Вид битрейта : Постоянный
Битрейт : 384 Кбит/сек
Каналы : 6 каналов
Расположение каналов : Front: L C R, Side: L R, LFE
Частота : 48,0 КГц
Битовая глубина : 16 бит
Метод сжатия : С потерями
Размер потока : 426 Мбайт (6%)
Заголовок : AC3 (Дублированный) Miramax
Язык : Russian
Аудио #2
Идентификатор : 3
Формат : AC-3
Формат/Информация : Audio Coding 3
Расширение режима : CM (complete main)
Параметр Endianness формата : Big
Идентификатор кодека : A_AC3
Продолжительность : 2 ч. 34 м.
Вид битрейта : Постоянный
Битрейт : 384 Кбит/сек
Каналы : 6 каналов
Расположение каналов : Front: L C R, Side: L R, LFE
Частота : 48,0 КГц
Битовая глубина : 16 бит
Метод сжатия : С потерями
Размер потока : 426 Мбайт (6%)
Заголовок : AC3 (Многоголосый) West Video
Язык : Russian
Аудио #3
Идентификатор : 4
Формат : AC-3
Формат/Информация : Audio Coding 3
Расширение режима : CM (complete main)
Параметр Endianness формата : Big
Идентификатор кодека : A_AC3
Продолжительность : 2 ч. 34 м.
Вид битрейта : Постоянный
Битрейт : 384 Кбит/сек
Каналы : 6 каналов
Расположение каналов : Front: L C R, Side: L R, LFE
Частота : 48,0 КГц
Битовая глубина : 16 бит
Метод сжатия : С потерями
Размер потока : 426 Мбайт (6%)
Заголовок : AC3 (Одноголосый) Д. Пучков
Язык : Russian
Аудио #4
Идентификатор : 5
Формат : AC-3
Формат/Информация : Audio Coding 3
Расширение режима : CM (complete main)
Параметр Endianness формата : Big
Идентификатор кодека : A_AC3
Продолжительность : 2 ч. 34 м.
Вид битрейта : Постоянный
Битрейт : 384 Кбит/сек
Каналы : 6 каналов
Расположение каналов : Front: L C R, Side: L R, LFE
Частота : 48,0 КГц
Битовая глубина : 16 бит
Метод сжатия : С потерями
Размер потока : 426 Мбайт (6%)
Заголовок : AC3 (Одноголосый) А. Гаврилов
Язык : Russian
Аудио #5
Идентификатор : 6
Формат : AC-3
Формат/Информация : Audio Coding 3
Расширение режима : CM (complete main)
Параметр Endianness формата : Big
Идентификатор кодека : A_AC3
Продолжительность : 2 ч. 34 м.
Вид битрейта : Постоянный
Битрейт : 384 Кбит/сек
Каналы : 6 каналов
Расположение каналов : Front: L C R, Side: L R, LFE
Частота : 48,0 КГц
Битовая глубина : 16 бит
Метод сжатия : С потерями
Размер потока : 426 Мбайт (6%)
Заголовок : AC3 (Одноголосый) Ю. Живов
Язык : Russian
Аудио #6
Идентификатор : 7
Формат : AC-3
Формат/Информация : Audio Coding 3
Расширение режима : CM (complete main)
Параметр Endianness формата : Big
Идентификатор кодека : A_AC3
Продолжительность : 2 ч. 34 м.
Вид битрейта : Постоянный
Битрейт : 192 Кбит/сек
Каналы : 2 канала
Расположение каналов : Front: L R
Частота : 48,0 КГц
Битовая глубина : 16 бит
Метод сжатия : С потерями
Размер потока : 213 Мбайт (3%)
Заголовок : AC3 (Одноголосый) В. Горчаков
Язык : Russian
Аудио #7
Идентификатор : 8
Формат : AC-3
Формат/Информация : Audio Coding 3
Расширение режима : CM (complete main)
Параметр Endianness формата : Big
Идентификатор кодека : A_AC3
Продолжительность : 2 ч. 34 м.
Вид битрейта : Постоянный
Битрейт : 448 Кбит/сек
Каналы : 6 каналов
Расположение каналов : Front: L C R, Side: L R, LFE
Частота : 48,0 КГц
Битовая глубина : 16 бит
Метод сжатия : С потерями
Размер потока : 497 Мбайт (7%)
Заголовок : AC3 (Оригинал)
Язык : English
Текст #1
Идентификатор : 9
Формат : UTF-8
Идентификатор кодека : S_TEXT/UTF8
Идентификатор кодека/Информация : UTF-8 Plain Text
Заголовок : Русские
Язык : Russian
Текст #2
Идентификатор : 10
Формат : UTF-8
Идентификатор кодека : S_TEXT/UTF8
Идентификатор кодека/Информация : UTF-8 Plain Text
Заголовок : Английские
Язык : English
-Скриншоты:
       
Вне форума [Профиль] [ЛС]
Похожие темы
Форум Тема Автор Торрент Отв. Посл. сообщение
./templates/default/images/folder_dl.gif Зарубежное кино Радиоволна / Frequency (Грегори Хоблит) [2000, драма, криминал, фантастика, триллер, BDRip-AVC] Владимирский
1 | 0

11 | 2660

3

2014-08-26 04:30
Геннадич Последнее
./templates/default/images/folder_dl.gif Зарубежное кино Шоссе смерти / Highwaymen (Роберт Хармон / Robert Harmon) [2004, США, Канада, боевик, триллер, криминал, WEB-DL 720p] 3x DVO + Sub Rus, Eng + Original Eng Omen
1 | 0

1 | 532

4

2015-06-06 08:17
Dracula Последнее
./templates/default/images/folder_dl.gif Фильмы 2001-2010 Я плюю на ваши могилы / I Spit on Your Grave (Стивен Р. Монро) [2010 г., криминал, триллер, ужасы, BDRip1080p] Владимирский
1 | 0

1 | 935

2

2015-07-21 05:03
Dracula Последнее
./templates/default/images/folder_dl.gif Новинки (BD|HDTV|DVD) Призрак в доспехах / Ghost in the Shell (Руперт Сандерс) [2017, фантастика, боевик, триллер, драма, криминал, детектив, BDRip 1080p] DUB | iTunes Theseus
1 | 0

0 | 753

5

2017-07-14 12:29
Theseus Последнее
Показать сообщения:    
Ответить на тему

Текущее время: Сегодня 04:59

Часовой пояс: GMT + 3



Вы не можете начинать темы
Вы не можете отвечать на сообщения
Вы не можете редактировать свои сообщения
Вы не можете удалять свои сообщения
Вы не можете голосовать в опросах
Вы не можете прикреплять файлы к сообщениям
Вы не можете скачивать файлы