Today is a free download without charge Download

(Heavy Metal) [CD] Pokolgep - Totalis Metal - 1986/2012, FLAC (image+.cue), lossless

Reply to topic
 
Author
Message

Omen ®

Longevity: 8 years 6 months

Posts: 181087

Торрент-статистика

Post 25-Dec-2014 23:00

[Quote]

Pokolgep - Totalis Metal
Жанр: Heavy Metal
Носитель: CD
Страна-производитель диска (релиза): Hungary
Год издания: 1986/2012
Издатель (лейбл): Hammer Records
Номер по каталогу: HMRCD 100
Страна исполнителя (группы): Hungary
Аудиокодек: FLAC (*.flac)
Тип рипа: image+.cue
Битрейт аудио: lossless
Продолжительность: 00:59:16
Источник (релизер): Диск из личной коллекции
Наличие сканов в содержимом раздачи: да
Треклист:
1. A Jel (3:34)
2. Pokolgep (3:13)
3. Demon (4:19)
4. A Tuz (3:00)
5. B.S. Emlekere (4:14)
6. Totalis Metal (3:43)
7. Mennyit Ersz (3:56)
8. Tkozott Nemzedek (4:02)
9. Mindhalalig Rock And Roll (3:28)
10. ...Tovabb (3:45)
11. Satan (Bonus Track) (4:35)
12. Maszk (Bonus Track) (3:38)
13. Heavy Metal (Bonus Track) (4:07)
14. Kegyetlen Asszony (Bonus Track) (4:49)
15. Mindhalalig Rock And Roll (Live) (Bonus Track) (4:54)

Лог создания рипа

Exact Audio Copy V0.99 prebeta 4 from 23. January 2008
Отчёт EAC об извлечении, выполненном 2. декабря 2014, 3:27
Pokolgep / Totalis Metal
Дисковод: PIONEER DVD-RW DVR-216D Adapter: 3 ID: 0
Режим чтения : ДостоверностьИспользование точного потока : ДаОтключение кэша аудио : ДаИспользование указателей C2 : Нет
Коррекция смещения при чтении : 96Способность читать области Lead-in и Lead-out : НетЗаполнение пропущенных сэмплов тишиной : ДаУдаление блоков с тишиной в начале и конце : НетПри вычислениях CRC использовались нулевые сэмплы : ДаИнтерфейс : Встроенный Win32-интерфейс для Win NT/2000
Выходной формат : Внутренние WAV-операцииФормат сэмплов : 44.100 Гц; 16 бит; стерео
TOC извлечённого CD
Трек | Старт | Длительность | Начальный сектор | Конечный сектор --------------------------------------------------------------------- 1 | 0:00.00 | 3:34.16 | 0 | 16065 2 | 3:34.16 | 3:12.74 | 16066 | 30539 3 | 6:47.15 | 4:18.62 | 30540 | 49951 4 | 11:06.02 | 2:59.45 | 49952 | 63421 5 | 14:05.47 | 4:13.62 | 63422 | 82458 6 | 18:19.34 | 3:43.36 | 82459 | 99219 7 | 22:02.70 | 3:55.50 | 99220 | 116894 8 | 25:58.45 | 4:02.20 | 116895 | 135064 9 | 30:00.65 | 3:28.04 | 135065 | 150668 10 | 33:28.69 | 3:45.03 | 150669 | 167546 11 | 37:13.72 | 4:34.42 | 167547 | 188138 12 | 41:48.39 | 3:37.55 | 188139 | 204468 13 | 45:26.19 | 4:07.09 | 204469 | 223002 14 | 49:33.28 | 4:48.43 | 223003 | 244645 15 | 54:21.71 | 4:54.19 | 244646 | 266714
Характеристики диапазона извлечения и сообщения об ошибках
Выбранный диапазон
Имя файла F:\Музыка (Lossless)\Pokolgep - Totalis Metal\Pokolgep - Totalis Metal.wav
Пиковый уровень 98.8 % Качество диапазона 100.0 % CRC теста F7D7CD93 CRC копии F7D7CD93 Копирование... OK
Ошибок не произошло
AccurateRip: сводка
Трек 1 точность не определена (достоверность 1) [1B5EA3AA], AccurateRip вернул [A7D2AD4B]Трек 2 точность не определена (достоверность 1) [F36880CD], AccurateRip вернул [08691250]Трек 3 точность не определена (достоверность 1) [04B00FCC], AccurateRip вернул [BE6BE4FC]Трек 4 точность не определена (достоверность 1) [2D52FD2C], AccurateRip вернул [B14D4F49]Трек 5 точность не определена (достоверность 1) [5EC8A63F], AccurateRip вернул [F36B25C5]Трек 6 точность не определена (достоверность 1) [3CC68C24], AccurateRip вернул [3AC8C276]Трек 7 точность не определена (достоверность 1) [19D030B9], AccurateRip вернул [974672F2]Трек 8 точность не определена (достоверность 1) [B790B6AB], AccurateRip вернул [65F451C5]Трек 9 точность не определена (достоверность 1) [0178830B], AccurateRip вернул [E66CD2AD]Трек 10 точность не определена (достоверность 1) [61E9BBE4], AccurateRip вернул [26163377]Трек 11 точность не определена (достоверность 1) [712613C9], AccurateRip вернул [CCB3CB14]Трек 12 точность не определена (достоверность 1) [03F57F39], AccurateRip вернул [4FA9F2A8]Трек 13 точность не определена (достоверность 1) [990366E2], AccurateRip вернул [2264863C]Трек 14 точность не определена (достоверность 1) [99261A9C], AccurateRip вернул [7A295023]Трек 15 точность не определена (достоверность 1) [47E87C2E], AccurateRip вернул [C3798F0F]
Ни один трек не прошёл проверки на точностьВ вашей базе может быть иной вариант штамповки диска
Конец отчёта

Содержание индексной карты (.CUE)

REM GENRE "Heavy Metal"REM DATE 1986REM DISCID B20DE40FREM COMMENT "ExactAudioCopy v0.99pb4"PERFORMER "Pokolgep"TITLE "Totalis Metal"FILE "Pokolgep - Totalis Metal.flac" WAVE TRACK 01 AUDIO TITLE "A Jel" PERFORMER "Pokolgep" INDEX 01 00:00:00 TRACK 02 AUDIO TITLE "Pokolgep" PERFORMER "Pokolgep" INDEX 01 03:34:16 TRACK 03 AUDIO TITLE "Demon" PERFORMER "Pokolgep" INDEX 01 06:47:15 TRACK 04 AUDIO TITLE "A Tuz" PERFORMER "Pokolgep" INDEX 01 11:06:02 TRACK 05 AUDIO TITLE "B.S. Emlekere" PERFORMER "Pokolgep" INDEX 01 14:05:47 TRACK 06 AUDIO TITLE "Totalis Metal" PERFORMER "Pokolgep" INDEX 01 18:19:34 TRACK 07 AUDIO TITLE "Mennyit Ersz?" PERFORMER "Pokolgep" INDEX 01 22:02:70 TRACK 08 AUDIO TITLE "Tkozott Nemzedek" PERFORMER "Pokolgep" INDEX 01 25:58:45 TRACK 09 AUDIO TITLE "Mindhalalig Rock And Roll" PERFORMER "Pokolgep" INDEX 01 30:00:65 TRACK 10 AUDIO TITLE "...Tovabb" PERFORMER "Pokolgep" INDEX 01 33:28:69 TRACK 11 AUDIO TITLE "Satan (Bonus Track)" PERFORMER "Pokolgep" INDEX 01 37:13:72 TRACK 12 AUDIO TITLE "Maszk (Bonus Track)" PERFORMER "Pokolgep" INDEX 01 41:48:39 TRACK 13 AUDIO TITLE "Heavy Metal (Bonus Track)" PERFORMER "Pokolgep" INDEX 01 45:26:19 TRACK 14 AUDIO TITLE "Kegyetlen Asszony (Bonus Track)" PERFORMER "Pokolgep" INDEX 01 49:33:28 TRACK 15 AUDIO TITLE "Mindhalalig Rock And Roll (Live) (Bonus Track)" PERFORMER "Pokolgep" INDEX 01 54:21:71
Other forum [Profile] [PM]
Similar theme
Forum Topic Author Torrent Replies Last Post
./templates/default/images/folder_dl.gif Metal (Heavy Metal) [CD] Danzig - Skeletons (Limited Edition)- 2015, FLAC (image+.cue), lossless Omen
1 | 0

0 | 1246

7

2015-12-05 06:27
Omen Latest
Display posts from previous:    
Reply to topic

The time now is: Today 04:12

All times are GMT + 3 Hours



You cannot post new topics in this forum
You cannot reply to topics in this forum
You cannot edit your posts in this forum
You cannot delete your posts in this forum
You cannot vote in polls in this forum
You cannot attach files in this forum
You cannot download files in this forum