Today is a free download without charge Download

Звёзды Дорожного радио (2015.01.01) SATRip

Reply to topic
 
Author
Message

sashau ®

Gender:

Longevity: 10 years

Posts: 3497

Торрент-статистика

Post 13-Jan-2015 19:05

[Quote]

Звёзды Дорожного радио - Режиссер / Телекомпания: 5
Русское название: Звёзды Дорожного радио
Год выпуска: 2015
Жанр: Концерт
Выпущено: Россия
Описание:
Звезды Дорожного Радио" - это не просто концерт, а настоящий праздник для ценителей популярной отечественной музыки. В канун Нового года телезрителей приветствуют лучшие исполнители отечественной эстрады. "ЗВЕЗДЫ ДОРОЖНОГО РАДИО" - два часа самой любимой музыки, самых лучших исполнителей и самых позитивных эмоций!
Продолжительность: 01:43:19
Качество видео: SATRip
Формат файла: AVI
Видеокодек: XVID
Битрейт видео: ~2499 kbps avg, 0.17 bit/pixel
Размер кадра: 720x400 (1.80:1), 50 fps
Аудиокодек: AC-3, 2.0ch.
Битрейт аудио: 192kb/s

MediaInfo:

Общее
Полное имя : D:\Zvezdy.dorozhnogo.radio.SATRip..avi
Формат : AVI
Формат/Информация : Audio Video Interleave
Размер файла : 1,96 Гбайт
Продолжительность : 1 ч. 43 м.
Общий поток : 2710 Кбит/сек
Программа кодирования : VirtualDubMod 1.5.10.3 | www.virtualdub-fr.org || (build 2550/release)
Библиотека кодирования : VirtualDubMod build 2550/release
Видео
Идентификатор : 0
Формат : MPEG-4 Visual
Профиль формата : Advanced [email protected]
Параметр BVOP формата : 2
Параметр QPel формата : Нет
Параметр GMC формата : Без точки перехода
Параметр матрицы формата : Default (H.263)
Идентификатор кодека : XVID
Идентификатор кодека/Подсказка : XviD
Продолжительность : 1 ч. 43 м.
Битрейт : 2499 Кбит/сек
Ширина : 720 пикселей
Высота : 400 пикселей
Соотношение сторон : 16:9
Частота кадров : 50,000 кадров/сек
Цветовое пространство : YUV
Субдискретизация насыщенности : 4:2:0
Битовая глубина : 8 бит
Тип развёртки : Прогрессивная
Метод сжатия : С потерями
Бит/(Пиксели*Кадры) : 0.174
Размер потока : 1,80 Гбайт (92%)
Библиотека кодирования : XviD 1.2.1 (UTC 2008-12-04)
Аудио
Идентификатор : 1
Формат : AC-3
Формат/Информация : Audio Coding 3
Расширение режима : CM (complete main)
Параметр Endianness формата : Big
Идентификатор кодека : 2000
Продолжительность : 1 ч. 43 м.
Вид битрейта : Постоянный
Битрейт : 192 Кбит/сек
Каналы : 2 канала
Расположение каналов : Front: L R
Частота : 48,0 КГц
Битовая глубина : 16 бит
Метод сжатия : С потерями
Размер потока : 142 Мбайт (7%)
Выравнивание : Разделение по промежуткам
Продолжительность промежутка : 20 мс. (1,00 видеокадр)
Время предзагрузки промежутка : 500 мс.
Скриншоты:        Rip by Taz
Other forum [Profile] [PM]
Similar theme
Forum Topic Author Torrent Replies Last Post
./templates/default/images/folder_dl.gif Зарубежное кино Изгой-один: Звёздные войны. Истории / Rogue One: A Star Wars Story (Гарет Эдвардс) [2016 г., фантастика, боевик, приключения, BDRip 1080p] DUB | Чистый звук Theseus
1 | 0

0 | 7890

7

2017-03-22 11:05
Theseus Latest
Display posts from previous:    
Reply to topic

The time now is: Today 22:32

All times are GMT + 3 Hours



You cannot post new topics in this forum
You cannot reply to topics in this forum
You cannot edit your posts in this forum
You cannot delete your posts in this forum
You cannot vote in polls in this forum
You cannot attach files in this forum
You cannot download files in this forum