Сегодня идет свободное скачивание без начисления Download

Семь лет в Тибете / Seven Years in Tibet (Жан-Жак Анно / Jean-Jacques Annaud) [1997 г., драма, приключения, военный, биография, история, BDRip] MVO

Ответить на тему
 
Автор
Сообщение

Clavik ®

Пол:

Стаж: 3 года 2 месяца

Сообщений: 2498

Откуда: Украина

Торрент-статистика

Пост 17-Янв-2015 18:12

[Цитировать]

-Семь лет в Тибете / Seven Years in Tibet-«Путешествие за границы цивилизации»- Производство: США, Великобритания, Mandalay Entertainment, Reperage & Vanguard Films, Applecross
Год выпуска: 1997 г.
Жанр: драма, приключения, военный, биография, история
Продолжительность: 02:16:08
Мировая премьера: 13 сентября 1997
Дата выхода DVD: 20 августа 1998, «Columbia/Sony»
Дата выхода Blu-Ray: 27 июля 2007, «Columbia/Sony»
Перевод: Профессиональный (многоголосый, закадровый)-Режиссер: Жан-Жак Анно / Jean-Jacques Annaud
В ролях: Брэд Питт, Дэвид Тьюлис, Б.Д. Вонг, Мако, Дэнни Дензонгпа, Виктор Вонг, Ингеборга Дапкунайте, Цзямъян Цзямцо Ванчук, Лакпа Тсамшо, Джетсун Пема, Ama Ashe Dongtse, Sonam Wangchuk, Dorjee Tsering, Рик Янг, Ngawang Chojor, Дункан Фрайзер, Бенедикк Блайт-Описание: Генрих Харрер, офицер Рейха, человек, у которого было все — успех, красота, известность. Но ему было мало земной славы. Оставив дома беременную жену, он отправляется на покорение самого неприступного пика в Гималаях. Этот подвиг должен увековечить его имя.
Однако впереди его ждет не успешное восхождение, а смертельная опасность, вражеский плен, долгие скитания… Наконец он добирается до таинственного тибетского города Лхаса, где ему предстоит провести долгих семь лет, и где молодой Далай Лама делает его своим приближенным. И здесь, в стране, лежащей за границами цивилизации, ему придется пережить события, которые навсегда изменят его жизнь…- -Качество видео: BDRip
Контейнер: AVI
Видео кодек: XviD
Аудио кодек: AC3
Видео: 720x304 (2.37:1), 23.976 fps, XviD build 50 ~1908 kbps avg, 0.36 bit/pixel
Аудио: 48 kHz, AC3 Dolby Digital, 3/2 (L,C,R,l,r) + LFE ch, ~384 kbps
Cубтитры: отсутствуют

Media Info

General
Complete name : D:\Sem'.let.v.Tibete.1997.BDRip.avi
Format : AVI
Format/Info : Audio Video Interleave
Format profile : OpenDML
File size : 2.19 GiB
Duration : 2h 16mn
Overall bit rate : 2 300 Kbps
Movie name : Семь лет в Тибете / Seven Years in Tibet
Writing application : VirtualDubMod 1.5.10.2 (build 2542/release)
Video
ID : 0
Format : MPEG-4 Visual
Format profile : Advanced [email protected]
Format settings, BVOP : 1
Format settings, QPel : No
Format settings, GMC : No warppoints
Format settings, Matrix : Custom
Codec ID : XVID
Codec ID/Hint : XviD
Duration : 2h 16mn
Bit rate : 1 904 Kbps
Width : 720 pixels
Height : 304 pixels
Display aspect ratio : 2.35:1
Frame rate : 23.976 fps
Color space : YUV
Chroma subsampling : 4:2:0
Bit depth : 8 bits
Scan type : Progressive
Compression mode : Lossy
Bits/(Pixel*Frame) : 0.363
Stream size : 1.81 GiB (83%)
Writing library : XviD 1.2.1 (UTC 2008-12-04)
Audio
ID : 1
Format : AC-3
Format/Info : Audio Coding 3
Mode extension : CM (complete main)
Format settings, Endianness : Big
Codec ID : 2000
Duration : 2h 16mn
Bit rate mode : Constant
Bit rate : 384 Kbps
Channel(s) : 6 channels
Channel positions : Front: L C R, Side: L R, LFE
Sampling rate : 48.0 KHz
Bit depth : 16 bits
Compression mode : Lossy
Delay relative to video : 15ms
Stream size : 374 MiB (17%)
Alignment : Split accross interleaves
Interleave, duration : 42 ms (1.00 video frame)
Interleave, preload duratio : 500 ms

Скриншоты

       

_________________


Вне форума [Профиль] [ЛС]
Показать сообщения:    
Ответить на тему

Текущее время: Сегодня 22:50

Часовой пояс: GMT + 3



Вы не можете начинать темы
Вы не можете отвечать на сообщения
Вы не можете редактировать свои сообщения
Вы не можете удалять свои сообщения
Вы не можете голосовать в опросах
Вы не можете прикреплять файлы к сообщениям
Вы не можете скачивать файлы