Today is a free download without charge Download

(Heavy Metal) [CD] Accept - Classics, Rocks\'n\'Ballads (Compilation, 1983 - 1996) - 2000, FLAC (image+.cue), lossless

Reply to topic
 
Author
Message

Omen ®

Longevity: 8 years 6 months

Posts: 181087

Торрент-статистика

Post 21-Jan-2015 09:04

[Quote]

Accept / Classics, Rocks'n'Ballads (Compilation, 1983 - 1996)
Жанр: Heavy Metal
Носитель: CD
Страна-производитель диска (релиза): EU
Год издания: 2000
Издатель (лейбл): BMG Ariola
Номер по каталогу: 74321 77407 2
Страна исполнителя (группы): Germany
Аудиокодек: FLAC (*.flac)
Тип рипа: image+.cue
Битрейт аудио: lossless
Продолжительность: 01:08:41
Источник (релизер): Original CD (s296)
Наличие сканов в содержимом раздачи: да
Треклист:
1. Mistreated (Single version) 04:45
2. Drifting Away 03:04 instrumental
3. All or Nothing (Single version) 03:26
5. Just By My Own 03:31
6. Generation Clash 06:26
7. It's Hard to Find a Way 04:19
8. Walking in the Shadow 04:28
9. Guardian of the Night 04:26
10. Winter Dreams 04:46
11. Run Through the Night 03:22
12. Hard Attack 04:37
13. Generation Clash II 05:06
14. Writing on the Wall II 04:25
15. Living for Tonite 03:35
16. Pomp and Circumstance 03:44 instrumental

Лог создания рипа

Exact Audio Copy V1.0 beta 4 from 7. December 2014
EAC extraction logfile from 17. January 2015, 16:11
Accept / Classics, Rocks 'n' Ballads
Used drive : Optiarc DVD RW AD-7203A Adapter: 1 ID: 0
Read mode : SecureUtilize accurate stream : YesDefeat audio cache : YesMake use of C2 pointers : No
Read offset correction : 48Overread into Lead-In and Lead-Out : NoFill up missing offset samples with silence : YesDelete leading and trailing silent blocks : NoNull samples used in CRC calculations : YesUsed interface : Native Win32 interface for Win NT & 2000
Used output format : User Defined EncoderSelected bitrate : 128 kBit/sQuality : HighAdd ID3 tag : NoCommand line compressor : C:\Program Files\Exact Audio Copy\Flac\flac.exeAdditional command line options : -V -8 -T "Date=%year%" -T "Genre=%genre%" %source%
TOC of the extracted CD
Track | Start | Length | Start sector | End sector --------------------------------------------------------- 1 | 0:00.32 | 4:45.15 | 32 | 21421 2 | 4:45.47 | 3:04.10 | 21422 | 35231 3 | 7:49.57 | 3:26.25 | 35232 | 50706 4 | 11:16.07 | 4:40.68 | 50707 | 71774 5 | 15:57.00 | 3:30.37 | 71775 | 87561 6 | 19:27.37 | 6:25.33 | 87562 | 116469 7 | 25:52.70 | 4:18.57 | 116470 | 135876 8 | 30:11.52 | 4:27.55 | 135877 | 155956 9 | 34:39.32 | 4:26.00 | 155957 | 175906 10 | 39:05.32 | 4:46.13 | 175907 | 197369 11 | 43:51.45 | 3:21.50 | 197370 | 212494 12 | 47:13.20 | 4:37.25 | 212495 | 233294 13 | 51:50.45 | 5:05.37 | 233295 | 256206 14 | 56:56.07 | 4:24.65 | 256207 | 276071 15 | 61:20.72 | 3:35.23 | 276072 | 292219 16 | 64:56.20 | 3:44.12 | 292220 | 309031
Range status and errors
Selected range
Filename G:\Music\My Rips\s296\Accept - 2000 - Classics, Rocks'n'Ballads (BMG 74321 77407 2) - by s296\Accept - Classics, Rocks 'n' Ballads.wav
Peak level 99.9 % Extraction speed 4.1 X Range quality 99.9 % Test CRC 93DCCCE7 Copy CRC 93DCCCE7 Copy OK
No errors occurred
AccurateRip summary
Track 1 accurately ripped (confidence 5) [A4B199AC] (AR v2)Track 2 accurately ripped (confidence 5) [8EDB131D] (AR v2)Track 3 accurately ripped (confidence 5) [B19C19ED] (AR v2)Track 4 accurately ripped (confidence 5) [3A524041] (AR v2)Track 5 accurately ripped (confidence 5) [4092DA59] (AR v2)Track 6 accurately ripped (confidence 5) [831D0524] (AR v2)Track 7 accurately ripped (confidence 5) [68263133] (AR v2)Track 8 accurately ripped (confidence 5) [C973B6A3] (AR v2)Track 9 accurately ripped (confidence 5) [B09D7ABB] (AR v2)Track 10 accurately ripped (confidence 5) [C7E48CF0] (AR v2)Track 11 accurately ripped (confidence 5) [038E8C60] (AR v2)Track 12 accurately ripped (confidence 5) [85D9F46C] (AR v2)Track 13 accurately ripped (confidence 5) [DB67081D] (AR v2)Track 14 accurately ripped (confidence 5) [12487DA0] (AR v2)Track 15 accurately ripped (confidence 5) [518C8EFB] (AR v2)Track 16 accurately ripped (confidence 5) [BC68ED44] (AR v2)
All tracks accurately ripped
End of status report
---- CUETools DB Plugin V2.1.4
[CTDB TOCID: 886XZbRu7msqcjmWn2KY3yVcEOg-] foundSubmit result: already submittedTrack | CTDB Status 1 | (4/4) Accurately ripped 2 | (4/4) Accurately ripped 3 | (4/4) Accurately ripped 4 | (4/4) Accurately ripped 5 | (4/4) Accurately ripped 6 | (4/4) Accurately ripped 7 | (4/4) Accurately ripped 8 | (4/4) Accurately ripped 9 | (4/4) Accurately ripped 10 | (4/4) Accurately ripped 11 | (4/4) Accurately ripped 12 | (4/4) Accurately ripped 13 | (4/4) Accurately ripped 14 | (4/4) Accurately ripped 15 | (4/4) Accurately ripped 16 | (4/4) Accurately ripped
==== Log checksum 9BDB14EB3804171F5E7F41144AEFEED4428EB00203014AB4FF8B7541D818357F ====

Содержание индексной карты (.CUE)

REM GENRE "Heavy Metal"REM DATE 2000REM DISCID F9101810REM COMMENT "ExactAudioCopy v1.0b4"PERFORMER "Accept"TITLE "Classics, Rocks 'n' Ballads"FILE "Accept - Classics, Rocks 'n' Ballads.flac" WAVE TRACK 01 AUDIO TITLE "Mistreated (Singel Version)" PERFORMER "Accept" INDEX 00 00:00:00 INDEX 01 00:00:32 TRACK 02 AUDIO TITLE "Drifting Away (Instumental)" PERFORMER "Accept" INDEX 01 04:45:47 TRACK 03 AUDIO TITLE "All Or Nothing (Singel Version)" PERFORMER "Accept" INDEX 00 07:48:52 INDEX 01 07:49:57 TRACK 04 AUDIO TITLE "Amamos La Vida" PERFORMER "Accept" INDEX 00 11:14:37 INDEX 01 11:16:07 TRACK 05 AUDIO TITLE "Just By My Own" PERFORMER "Accept" INDEX 00 15:55:47 INDEX 01 15:57:00 TRACK 06 AUDIO TITLE "Generation Clash" PERFORMER "Accept" INDEX 00 19:26:62 INDEX 01 19:27:37 TRACK 07 AUDIO TITLE "It's Hard To Find A Way" PERFORMER "Accept" INDEX 00 25:51:32 INDEX 01 25:52:70 TRACK 08 AUDIO TITLE "Walking In The Shadow" PERFORMER "Accept" INDEX 00 30:11:35 INDEX 01 30:11:52 TRACK 09 AUDIO TITLE "Guardian Of The Night" PERFORMER "Accept" INDEX 00 34:38:32 INDEX 01 34:39:32 TRACK 10 AUDIO TITLE "Winter Dreams" PERFORMER "Accept" INDEX 00 39:04:07 INDEX 01 39:05:32 TRACK 11 AUDIO TITLE "Run Through The Night" PERFORMER "Accept" INDEX 00 43:50:32 INDEX 01 43:51:45 TRACK 12 AUDIO TITLE "Hard Attack" PERFORMER "Accept" INDEX 00 47:12:07 INDEX 01 47:13:20 TRACK 13 AUDIO TITLE "Generation Clash II" PERFORMER "Accept" INDEX 00 51:49:50 INDEX 01 51:50:45 TRACK 14 AUDIO TITLE "Writing On The Wall" PERFORMER "Accept" INDEX 00 56:55:20 INDEX 01 56:56:07 TRACK 15 AUDIO TITLE "Living For Tonite" PERFORMER "Accept" INDEX 00 61:20:35 INDEX 01 61:20:72 TRACK 16 AUDIO TITLE "Pomp And Circumstance (instumental)" PERFORMER "Accept" INDEX 00 64:55:32 INDEX 01 64:56:20

Лог проверки качества

-----------------------
DON'T MODIFY THIS FILE
-----------------------
PERFORMER: auCDtect Task Manager, ver. 1.5.1RC4 build 1.5.1.5Copyright (c) 2008-2010 y-soft. All rights reservedhttp://y-soft.org
ANALYZER: auCDtect: CD records authenticity detector, version 0.8.2Copyright (c) 2004 Oleg Berngardt. All rights reserved.Copyright (c) 2004 Alexander Djourik. All rights reserved.
FILE: Accept - Classics, Rocks 'n' Ballads.flac Size: 506152221 Hash: 8CD6B5393210371F44FBF140555F6908 Accuracy: -m0 Conclusion: CDDA 99% Signature: 308AECC4EF8BB09EA354D43DB795A268401D670B

Скриншот спектра частот

Об исполнителе (группе)

http://www.metal-archives.com/bands/Accept/198
Other forum [Profile] [PM]
Similar theme
Forum Topic Author Torrent Replies Last Post
./templates/default/images/folder_dl.gif Metal (Heavy Metal) [CD] Pokolgep - Totalis Metal - 1986/2012, FLAC (image+.cue), lossless Omen
0 | 1

0 | 1749

0

2014-12-25 23:00
Omen Latest
./templates/default/images/folder_dl.gif Metal (Heavy Metal) [CD] Danzig - Skeletons (Limited Edition)- 2015, FLAC (image+.cue), lossless Omen
1 | 0

0 | 1246

7

2015-12-05 06:27
Omen Latest
Display posts from previous:    
Reply to topic

The time now is: Today 04:27

All times are GMT + 3 Hours



You cannot post new topics in this forum
You cannot reply to topics in this forum
You cannot edit your posts in this forum
You cannot delete your posts in this forum
You cannot vote in polls in this forum
You cannot attach files in this forum
You cannot download files in this forum