Сегодня идет свободное скачивание без начисления Download

Три мушкетера / Les Trois Mousquetaires (Бернар Бордери, мелодрама, приключения, история, 1961) [H.264] DVDRip

Ответить на тему
 
Автор
Сообщение

Omen ®

Стаж: 4 года 1 месяц

Сообщений: 194394

Торрент-статистика

Пост 02-Мар-2012 20:28

[Цитировать]

Три мушкетера / Les Trois Mousquetaires -
Описание:
Любимый фильм моего детства, который пересматривал много раз, не удержался и с удовольствием пересмотрел еще раз в 43 года. Он нисколько не устарел. Книги я читал в свое время запоем — закрывал последнюю страницу пятого тома и начинал читать сначала. Именно такими я всегда представлял своих любимых персонажей и, как и многие мальчишки, воображал себя Д Артаньяном. Уверен, что необходимости пересказывать содержание нет — если кто не читал и не смотрел, то, наверняка, хотя бы слышал. С: Жана Бернар-Лу и Бернара Бордери по мотивам романа Александра Дюма. Диалоги Жан Бернар-Лу. К: Поль Мисраки. О: Арман Тирар. М: Кристиан Годен. Х: Рене Мулар. Кс: Розина Деламар. Картина прекрасно озвучена актерами — тогда это еще делать умели на совесть и со вкусом, без истеричных интонаций к месту и не к месту, без блеяния и идиотского смеха. (М. Иванов)Состоит из двух фильмов:
1. Подвески королевы (1961)
2. Месть миледи (1961)-Жанр: мелодрама, приключения, история
Режиссер: Бернар Бордери
Сценарий: Жан Бернар-Люк, Александр Дюма отец, Бернар Бордери
Композитор: Поль Мизраки-Актеры:
Жерар Баррэ, Жорж Декриер, Бернар Воринже, Жак Тожа, Милен Демонжо, Жан Карме, Ги Делорм, Робер Берри, Анн Тоньетти, Ги Трежан, Анри Нассье, Жак Бертье, Франсуаза Кристоф, Даниэль Сорано, Перретт Прадье, Жак Сейлер, Андре Вебер, Анри Коган, Лена Скерла, Филипп Марш, Малка Рибовска, Юбер де Лаппаран, Эспанита Кортес, Пьер Мира, Доминик Зарди, Жан Деграв, Жак Иллинг, Жан Озенн, Клод Салез, Жан Гра, Саша Питоефф, Жерар Дарьё, Клод Салез, Мадлен Колон-Ламбер…-Перевод: дублированный (Советский), профессиональный (двухголосый)-Продолжительность: 2 x ~ 01:34:27-

Три мушкетера: Подвески королевы / Les trois mousquetaires: Premire poque - Les ferrets de la reine

Три мушкетера: Подвески королевы / Les trois mousquetaires: Premire poque - Les ferrets de la reine (1961) DVDRip- Русское название: Три мушкетера: Подвески королевы
Оригинальное название: Les trois mousquetaires: Premire poque - Les ferrets de la reine
Год выхода: 1961
Страна: Франция, Италия
Жанр: мелодрама, приключения, история
Кинокомпания: Films Borderie, Fono Roma, Le Film d'Art, Les Films Modernes (I)
Описание фильма: Итак, молодой гасконец Д'Артаньян прибывает в столицу на дрянной лошаденке непонятного цвета. Казалось, что может ждать деревенщину в Париже, кроме неприятностей? А вот что: служба в мушкетерском полку, любовь прелестнейшей из придворных дам, знакомство с королевой Анной Австрийской и приключения, приключения, приключения. Вот уж правда, счастье и несчастье идут рука об рука. Вспомните, как повезло Д'Артаньяну: его полюбила прелестная госпожа Бонасье, сама королева вознаградила его за отвагу, а главные забияки мушкетерского полка назвали гасконца своим другом. У Д'Артаньяна появился могущественный враг — сам кардинал Ришелье. Он не может простить мушкетеру истории с подвесками. Но даже кардинал — еще не беда. Куда страшней разъяренная белокурая тигрица миледи де Винтер. Д'Артаньян встал у нее на пути, и она решает отомстить. Сцены поединков, как рукопашных, так и на шпагах, захватывают, несмотря на преклонные годы этого фильма.
Режиссер: Бернар Бордери
Актеры Жерар Баррэ, Жорж Декриер, Бернар Воринже, Жак Тожа, Милен Демонжо, Жан Карме, Ги Делорм, Робер Берри, Анн Тоньетти, Ги Трежан, Анри Нассье, Жак Бертье, Франсуаза Кристоф, Даниэль Сорано, Перретт Прадье, Жак Сейлер, Андре Вебер, Анри Коган, Лена Скерла, Филипп Марш, Малка Рибовска, Юбер де Лаппаран, Эспанита Кортес, Пьер Мира, Доминик Зарди, Жан Деграв, Жак Иллинг, Жан Озенн, Клод Салез, Жан Гра…
Продолжительность: 01:39:25
Перевод: дублированный, двухголосый закадровый
Релиз группа:

Дата мировой премьеры: 4 октября 1961
Дата выхода DVD релиза: 4 декабря 2008, «Союз-Видео»
Видеокодек: MPEG-4 AVC/H.264
Битрейт видео: ~3300 Kbps
Размер кадра: 700x432
Качество видео: DVDRip
Аудио:
1: AC3, 2 ch, ~192 kbps – русский, дублированный (советский)
2: AC3, 2 ch, ~192 kbps – русский, двухголосый
3: AC3, 2 ch, ~192 kbps – французский

MediaInfo:

Код:
General
Unique ID                                : 197621930458267786755365871500066216678 (0x94AC996F3ECDC8F69EBEE7E9890EDAE6)
Complete name                            : lEs.trOis.mOusquEtAirEs.1961.h264.DVDRip\lEs.trOis.mOusquEtAirEs_1_prEmiErE.EpOquE.lEs.fErrEts.dE.lA.rEinE.1961.DVDRip.mkv
Format                                   : Matroska
Format version                           : Version 1
File size                                : 2.69 GiB
Duration                                 : 1h 39mn
Overall bit rate                         : 3 880 Kbps
Encoded date                             : UTC 2011-04-17 23:19:19
Writing application                      : mkvmerge v2.3.0 ('Freak U') built on Sep  8 2008 18:32:16
Writing library                          : libebml v0.7.7 + libmatroska v0.8.1
Video
ID                                       : 1
Format                                   : AVC
Format/Info                              : Advanced Video Codec
Format profile                           : [email protected]
Format settings, CABAC                   : Yes
Format settings, ReFrames                : 9 frames
Codec ID                                 : V_MPEG4/ISO/AVC
Duration                                 : 1h 39mn
Bit rate                                 : 3 300 Kbps
Width                                    : 700 pixels
Height                                   : 432 pixels
Display aspect ratio                     : 2.35:1
Original display aspect ratio            : 1.620
Frame rate                               : 25.000 fps
Color space                              : YUV
Chroma subsampling                       : 4:2:0
Bit depth                                : 8 bits
Scan type                                : Progressive
Bits/(Pixel*Frame)                       : 0.437
Stream size                              : 2.24 GiB (83%)
Writing library                          : x264 core 114 r1913 5fd3dce
Encoding settings                        : cabac=1 / ref=9 / deblock=1:0:0 / analyse=0x3:0x133 / me=umh / subme=7 / psy=1 / psy_rd=1.00:0.00 / mixed_ref=1 / me_range=32 / chroma_me=1 / trellis=2 / 8x8dct=1 / cqm=0 / deadzone=21,11 / fast_pskip=0 / chroma_qp_offset=-2 / threads=6 / sliced_threads=0 / nr=0 / decimate=1 / interlaced=0 / constrained_intra=0 / bframes=5 / b_pyramid=2 / b_adapt=2 / b_bias=0 / direct=3 / weightb=1 / open_gop=0 / weightp=2 / keyint=250 / keyint_min=25 / scenecut=40 / intra_refresh=0 / rc_lookahead=50 / rc=2pass / mbtree=1 / bitrate=3300 / ratetol=1.0 / qcomp=0.60 / qpmin=10 / qpmax=51 / qpstep=4 / cplxblur=20.0 / qblur=0.5 / ip_ratio=1.40 / aq=1:1.00
Language                                 : English
Default                                  : Yes
Forced                                   : No
Audio #1
ID                                       : 2
Format                                   : AC-3
Format/Info                              : Audio Coding 3
Mode extension                           : CM (complete main)
Codec ID                                 : A_AC3
Duration                                 : 1h 39mn
Bit rate mode                            : Constant
Bit rate                                 : 192 Kbps
Channel(s)                               : 2 channels
Channel positions                        : Front: L R
Sampling rate                            : 48.0 KHz
Bit depth                                : 16 bits
Compression mode                         : Lossy
Stream size                              : 137 MiB (5%)
Title                                    : Дублированный
Language                                 : Russian
Default                                  : Yes
Forced                                   : No
Audio #2
ID                                       : 3
Format                                   : AC-3
Format/Info                              : Audio Coding 3
Mode extension                           : CM (complete main)
Codec ID                                 : A_AC3
Duration                                 : 1h 39mn
Bit rate mode                            : Constant
Bit rate                                 : 192 Kbps
Channel(s)                               : 2 channels
Channel positions                        : Front: L R
Sampling rate                            : 48.0 KHz
Bit depth                                : 16 bits
Compression mode                         : Lossy
Stream size                              : 137 MiB (5%)
Title                                    : Двухголосый
Language                                 : Russian
Default                                  : No
Forced                                   : No
Audio #3
ID                                       : 4
Format                                   : AC-3
Format/Info                              : Audio Coding 3
Mode extension                           : CM (complete main)
Codec ID                                 : A_AC3
Duration                                 : 1h 39mn
Bit rate mode                            : Constant
Bit rate                                 : 192 Kbps
Channel(s)                               : 2 channels
Channel positions                        : Front: L R
Sampling rate                            : 48.0 KHz
Bit depth                                : 16 bits
Compression mode                         : Lossy
Stream size                              : 137 MiB (5%)
Title                                    : Французский
Language                                 : French
Default                                  : No
Forced                                   : No
Скриншоты:
       
       
-[spoiler= "Рецензия:"]Рецензия с сайта КиНОПОиСК от Proctolog :
Образец для подражания
«Les trois mousquetaires» — действительно, образец того, как надо снимать фильмы по произведениям: никакой «отсебятины», действие идет строго по роману Дюма. Красивейшие декорации и пейзажи, ну а самое главное — снято во Франции, без странных выдумок и ляпов.
Актеры подобраны идеально, начиная от холодной, неприступной миледи и заканчивая простоватым Планше. Особенно восхищает актер, выбранный на роль Арамиса (Жак Тожа). Утонченный, галантный — великолепная режиссерская находка.
Бордери — любитель костюмных фильмов, и, надо признать, они ему удаются на славу!
И, между прочим, много актеров, игравших в «Мушкетерах» можно потом увидеть и в более известной нашему зрителю «Анжелике».
Может, эта картина не столь изобилует песнями и не так весела, как советский аналог, но увидеть её стоит, хотя бы для того, чтоб посмотреть, какие картины снимали в золотой век французского кино.
-

Три мушкетера: Месть миледи / Les trois mousquetaires: La vengeance de Milady

Три мушкетера: Месть миледи / Les trois mousquetaires: La vengeance de Milady (1961) DVDRip- Русское название: Три мушкетера: Месть миледи
Оригинальное название: Les trois mousquetaires: La vengeance de Milady
Год выхода: 1961
Страна: Франция, Италия
Жанр: мелодрама, приключения, история
Кинокомпания: Borderie, Fono Roma, Le Film d'Art, Les Films Modernes (I)-Описание фильма:
Вот уж правда, счастье и несчастье идут рука об рука. Вспомните, как повезло Д`Артаньяну: его полюбила прелестная госпожа Бонасье, сама королева вознаградила его за отвагу, а главные забияки мушкетерского полка назвали гасконца своим другом.
У Д`Артаньяна появился могущественный враг - сам кардинал Ришелье. Он не может простить мушкетеру истории с подвесками. Но даже кардинал - еще не беда.
Куда страшней разъяренная белокурая тигрица миледи де Винтер. Д`Артаньян встал у нее на пути, и она решает отомстить…-Режиссер: Бернар Бордери
Актеры:
Жерар Баррэ, Милен Демонжо, Перретт Прадье, Жорж Декриер, Бернар Воринже, Жак Тожа, Франсуаза Кристоф, Ги Трежан, Даниэль Сорано, Ги Делорм, Жан Карме, Робер Берри, Анн Тоньетти, Анри Нассье, Жак Сейлер, Саша Питоефф, Малка Рибовска, Андре Вебер, Анри Коган, Жерар Дарьё, Эспанита Кортес, Клод Салез, Мадлен Колон-Ламбер…-Продолжительность: 01:34:54
Перевод: дублированный, двухголосый закадровый- -Дата мировой премьеры: 18 октября 1961
Дата выхода DVD релиза: 11 декабря 2008, «Союз-Видео»-Видеокодек: MPEG-4 AVC/H.264
Битрейт видео: ~3469 Kbps
Размер кадра: 700x432
Качество видео: DVDRip
Аудио:
1: AC3, 2 ch, ~192 kbps – русский, дублированный
2: AC3, 2 ch, ~192 kbps – русский, двухголосый
3: AC3, 2 ch, ~192 kbps – французский-

MediaInfo:

Код:
General
Unique ID                                : 191056111198894976259961602058308330782 (0x8FBC118D40FD512F9C753AC2B6ECA51E)
Complete name                            : lEs.trOis.mOusquEtAirEs.1961.h264.DVDRip\lEs.trOis.mOusquEtAirEs_2_lA.vEngEancE.dE.milAdy.1961.DVDRip.mkv
Format                                   : Matroska
Format version                           : Version 1
File size                                : 2.68 GiB
Duration                                 : 1h 34mn
Overall bit rate                         : 4 049 Kbps
Encoded date                             : UTC 2011-04-17 21:57:17
Writing application                      : mkvmerge v2.3.0 ('Freak U') built on Sep  8 2008 18:32:16
Writing library                          : libebml v0.7.7 + libmatroska v0.8.1
Video
ID                                       : 1
Format                                   : AVC
Format/Info                              : Advanced Video Codec
Format profile                           : [email protected]
Format settings, CABAC                   : Yes
Format settings, ReFrames                : 9 frames
Codec ID                                 : V_MPEG4/ISO/AVC
Duration                                 : 1h 34mn
Bit rate                                 : 3 469 Kbps
Width                                    : 700 pixels
Height                                   : 432 pixels
Display aspect ratio                     : 2.35:1
Original display aspect ratio            : 1.620
Frame rate                               : 25.000 fps
Color space                              : YUV
Chroma subsampling                       : 4:2:0
Bit depth                                : 8 bits
Scan type                                : Progressive
Bits/(Pixel*Frame)                       : 0.459
Stream size                              : 2.25 GiB (84%)
Writing library                          : x264 core 114 r1913 5fd3dce
Encoding settings                        : cabac=1 / ref=9 / deblock=1:0:0 / analyse=0x3:0x133 / me=umh / subme=7 / psy=1 / psy_rd=1.00:0.00 / mixed_ref=1 / me_range=32 / chroma_me=1 / trellis=2 / 8x8dct=1 / cqm=0 / deadzone=21,11 / fast_pskip=0 / chroma_qp_offset=3 / threads=6 / sliced_threads=0 / nr=0 / decimate=1 / interlaced=0 / constrained_intra=0 / bframes=9 / b_pyramid=2 / b_adapt=2 / b_bias=0 / direct=3 / weightb=1 / open_gop=0 / weightp=2 / keyint=250 / keyint_min=25 / scenecut=0 / intra_refresh=0 / rc_lookahead=50 / rc=2pass / mbtree=1 / bitrate=3469 / ratetol=1.0 / qcomp=0.60 / qpmin=10 / qpmax=51 / qpstep=4 / cplxblur=20.0 / qblur=0.5 / ip_ratio=1.40 / aq=1:1.00
Language                                 : English
Default                                  : Yes
Forced                                   : No
Audio #1
ID                                       : 2
Format                                   : AC-3
Format/Info                              : Audio Coding 3
Mode extension                           : CM (complete main)
Codec ID                                 : A_AC3
Duration                                 : 1h 34mn
Bit rate mode                            : Constant
Bit rate                                 : 192 Kbps
Channel(s)                               : 2 channels
Channel positions                        : Front: L R
Sampling rate                            : 48.0 KHz
Bit depth                                : 16 bits
Compression mode                         : Lossy
Stream size                              : 130 MiB (5%)
Title                                    : Дублированный
Language                                 : Russian
Default                                  : Yes
Forced                                   : No
Audio #2
ID                                       : 3
Format                                   : AC-3
Format/Info                              : Audio Coding 3
Mode extension                           : CM (complete main)
Codec ID                                 : A_AC3
Duration                                 : 1h 34mn
Bit rate mode                            : Constant
Bit rate                                 : 192 Kbps
Channel(s)                               : 2 channels
Channel positions                        : Front: L R
Sampling rate                            : 48.0 KHz
Bit depth                                : 16 bits
Compression mode                         : Lossy
Stream size                              : 130 MiB (5%)
Title                                    : Двухголосый
Language                                 : Russian
Default                                  : No
Forced                                   : No
Audio #3
ID                                       : 4
Format                                   : AC-3
Format/Info                              : Audio Coding 3
Mode extension                           : CM (complete main)
Codec ID                                 : A_AC3
Duration                                 : 1h 34mn
Bit rate mode                            : Constant
Bit rate                                 : 192 Kbps
Channel(s)                               : 2 channels
Channel positions                        : Front: L R
Sampling rate                            : 48.0 KHz
Bit depth                                : 16 bits
Compression mode                         : Lossy
Stream size                              : 130 MiB (5%)
Title                                    : Французский
Language                                 : French
Default                                  : No
Forced                                   : No
Скриншоты:
       
       

Рецензия:

Рецензия с сайта КиНОПОиСК от Leon S Cenedi :
Заклятый и древний, враг снова клянётся,
Меня растереть, растереть в порошок,
Но ангел не дремлет и всё обойдётся,
И кончится всё хорошо!

Очень странно, что фильм здесь поделили на две части. Он ведь вроде как двухсерийный. Наших же мушкетёров не разбили на несколько серий и не дали по странице сайта на каждую. После довольно подробного описания впечатлений о первом фильме, оказывается, что нечего писать о втором. Так как они тесно связанны и не воспринимаются как два отдельных фильма. Повторять одно и тоже не хочется, а придумать что-то новое об практически одном и том же фильме трудновато.
Во всех фильмах приключения Мушкетёров заканчивались после путешествия за подвесками королевы в Англию и обратно. Так как основная интрига заключалась именно в этой части романа. Здесь же режиссер не собирается заканчивать приключения и испытания, выпавшие на долю четырёх друзей-мушкетёров, решая немного обострить обстановку. И вторая часть фильма смотрится, пожалуй, даже интереснее первой. Мы уже привыкли, что после удачного завершения истории с подвесками приключения д`Артаньяна постепенно заканчиваются, а тут ещё целая история, не менее интригующая, чем предыдущая. Серьёзно разозлившиеся неудачей с подвесками Миледи и кардинал жаждут мести и начинают строить различные козни четырём мушкетёрам и их близким. На этот раз враги ведут себя гораздо осмотрительней и коварнее. Кардинал Ришелье уже не церемонится со своими врагами. Констанцию и д`Артаньяна похищают, окружают целой армией охранников, побуждают предать друг друга и собираются, в конце концов, казнить. Но всё конечно закончится относительно хорошо — Миледи получит по заслугам, кардинал простит главных героев, а д`Артаньян станет мушкетёром и сразится с Рошфором. Хотя в книге поединка этого не было, и персонаж Рошфора даже фигурировал в продолжении романа. Но это всё не существенные мелочи, совсем не портящие данную экранизацию.
Жаль что продолжение романа — «20 лет спустя» и «Виконт де Бражелон», удостоились экранизации только в нашей стране. Хотелось бы видеть продолжение и этой версии фильма. Я думаю, что он получился бы не хуже нашего.
Это фильм моего детства. Я пересматривал его по несколько раз в месяц. Кассета была загнанна до такой степени, что изображение в ней было почти чёрно-белым. Поставить меньше 10 баллов просто не могу. Если бы можно было поставить какому-нибудь фильму на выбор 11 или 12 баллов, то я бы выбрал именно этот.

Дополнительная информация о переводе:

Советский дублированный перевод к данному фильму делали:
• Д'Артаньян - А. Карапетян
• Атос - Е. Кордунов
• Портос - Р. Чумак
• Арамис - О. Голубицкий
• Миледи - А. Кончакова
• Констанс - Ю. Бугаева
• Королева Анна Австрийская - Н. Никитина
• Кардинал де Ришелье - С. Курилов
• Планше - Д. Масанов
• Кетти - А. Арановская
• Герцог Бекингем - В. Дружников
• Де Тревиль - К. Тыртов
• Король Людовик XIII - Ю. Саранцев
• Рошфор - М. Глузский
• Бонасье - Я. Беленький
Вне форума [Профиль] [ЛС]
Показать сообщения:    
Ответить на тему

Текущее время: Сегодня 16:41

Часовой пояс: GMT + 3



Вы не можете начинать темы
Вы не можете отвечать на сообщения
Вы не можете редактировать свои сообщения
Вы не можете удалять свои сообщения
Вы не можете голосовать в опросах
Вы не можете прикреплять файлы к сообщениям
Вы не можете скачивать файлы