Сегодня идет свободное скачивание без начисления Download

Хороший, Плохой, Злой / The Good, The Bad, The Ugly (Серджио Леоне) [1966, вестерн, BDRip-AVC] MVO

Ответить на тему
 
Автор
Сообщение

O.S.A. ®

Пол:

Стаж: 3 года 1 месяц

Сообщений: 4520

Откуда: СССР

Торрент-статистика

Пост 04-Фев-2015 09:12

[Цитировать]

--Хороший, Плохой, Злой / The Good, The Bad, The Ugly-«Для этих трех мужчин гражданская война - не ад, для них она - учебка!»-- Год выпуска: 1966
Страна: Италия, Испания, Германия (ФРГ)
Производство:: Arturo González Producciones, Constantin Film Produktion, Produzioni Europee
Жанр: вестерн
Продолжительность: 02:54:23
Перевод: Профессиональный (многоголосый закадровый)-Режиссер: Серджио Леоне-В ролях: Клинт Иствуд, Эли Уоллах, Ли Ван Клиф, Альдо Джуффре, Луиджи Пистилли, Рада Рассимов, Энцо Петито, Клаудио Скаркилли, Джон Барта, Ливио Лоренцон...-Описание: В разгар гражданской войны таинственный стрелок скитается по просторам Дикого Запада. У него нет ни дома, ни друзей, ни компаньонов, пока он не встречает двоих незнакомцев, таких же безжалостных и циничных.
По воле судьбы трое мужчин вынуждены объединить свои усилия в поисках украденного золота. Но совместная работа — не самое подходящее занятие для таких отъявленных бандитов, как они. Компаньоны вскоре понимают, что в их дерзком и опасном путешествии по разоренной войной стране самое важное — никому не доверять и держать пистолет наготове, если хочешь остаться в живых.-- --Качество видео: BDRip-AVC
Формат видео: MKV
Видео кодек: H.264
Аудио кодек: AC3
Видео: 720x304 (2.35:1), 23.976 fps, MPEG-4 AVC, ~1094 kbps avg, 0.208 bit/pixel
Аудио: 48.0 kHz, AC3 Dolby Digital, 2/0 (L,R) ch, ~192.00 kbps avg
Субтитры: нет
--

Media Info

General
Unique ID : 206579171439239981550272788964317095995 (0x9B69B382E6DF7296AB4B9D97C7BC683B)
Complete name : W:\O.S.A.\Торренты\Торрент файлы\Хороший, Плохой, Злой_BDRip-AVC.mkv
Format : Matroska
File size : 1.58 GiB
Duration : 2h 54mn
Overall bit rate : 1 298 Kbps
Encoded date : UTC 2015-02-03 17:31:11
Writing application : mkvmerge v2.4.0 ('Fumbling Towards Ecstasy') built on Oct 11 2008 20:13:15
Writing library : libebml v0.7.7 + libmatroska v0.8.1
Video
ID : 1
Format : AVC
Format/Info : Advanced Video Codec
Format profile : [email protected]
Format settings, CABAC : No
Format settings, ReFrames : 1 frame
Codec ID : V_MPEG4/ISO/AVC
Duration : 2h 54mn
Bit rate : 1 094 Kbps
Width : 720 pixels
Height : 304 pixels
Display aspect ratio : 2.35:1
Frame rate : 23.976 fps
Color space : YUV
Chroma subsampling : 4:2:0
Bit depth : 8 bits
Scan type : Progressive
Bits/(Pixel*Frame) : 0.208
Stream size : 1.32 GiB (83%)
Writing library : x264 core 80 r1378+57 6f6b50a
Encoding settings : cabac=0 / ref=1 / deblock=1:0:0 / analyse=0x3:0x113 / me=hex / subme=7 / psy=1 / psy_rd=1.0:0.0 / mixed_ref=0 / me_range=16 / chroma_me=1 / trellis=0 / 8x8dct=1 / cqm=0 / deadzone=21,11 / fast_pskip=1 / chroma_qp_offset=-2 / threads=3 / sliced_threads=0 / nr=0 / decimate=1 / mbaff=0 / constrained_intra=0 / bframes=0 / wpredp=2 / keyint=250 / keyint_min=25 / scenecut=40 / rc_lookahead=40 / rc=abr / mbtree=1 / bitrate=1094 / ratetol=1.0 / qcomp=0.60 / qpmin=10 / qpmax=51 / qpstep=4 / ip_ratio=1.40 / aq=1:1.00
Audio
ID : 2
Format : AC-3
Format/Info : Audio Coding 3
Mode extension : CM (complete main)
Codec ID : A_AC3
Duration : 2h 54mn
Bit rate mode : Constant
Bit rate : 192 Kbps
Channel(s) : 2 channels
Channel positions : Front: L R
Sampling rate : 48.0 KHz
Bit depth : 16 bits
Compression mode : Lossy
Stream size : 239 MiB (15%)

Скриншоты

     
     
-- --

_________________

===============================
IGNOSCITO SAEPE ALTERI, NUNQUAM TIBI
Вне форума [Профиль] [ЛС]
Похожие темы
Форум Тема Автор Торрент Отв. Посл. сообщение
./templates/default/images/folder_dl.gif Фильмы 2001-2010 Крепкий орешек: Хороший день, чтобы умереть / A Good Day to Die Hard (Боевик,Триллер,Криминал.2013) BDRip [H.264/720р-LQ] KirovSOFT
1 | 0

0 | 552

44

2013-05-24 21:15
KirovSOFT Последнее
./templates/default/images/folder_dl.gif Медицина и Здоровье Олег Панков | Секреты людей, которые хорошо видят (2014) [PDF] Omen
1 | 0

0 | 684

11

2014-03-16 22:32
Omen Последнее
./templates/default/images/folder_dl.gif Документальные фильмы и телепередачи Научи хорошему - Запрещенная правда о СМИ (2015) HDTVRip Aikivas
1 | 0

0 | 292

3

2015-07-29 22:36
Aikivas Последнее
Показать сообщения:    
Ответить на тему

Текущее время: Сегодня 01:14

Часовой пояс: GMT + 3



Вы не можете начинать темы
Вы не можете отвечать на сообщения
Вы не можете редактировать свои сообщения
Вы не можете удалять свои сообщения
Вы не можете голосовать в опросах
Вы не можете прикреплять файлы к сообщениям
Вы не можете скачивать файлы