Today is a free download without charge Download

Mozart - Coronation Mass; Bruckner: Te Deum (Herbert von Karajan & Vienna Philharmonic Orchestra) (1999) [FLAC|Lossless]<Classical, Orchestral, Symphonic>

Reply to topic
 
Author
Message

sashau ®

Gender:

Longevity: 7 years 8 months

Posts: 3497

Торрент-статистика

Post 17-Feb-2015 15:26

[Quote]

Mozart - Coronation Mass; Bruckner: Te Deum (Herbert von Karajan & Vienna Philharmonic Orchestra) - Год: 1999
Жанр: Classical, Orchestral, Symphonic, Classical Period, Aria, Mass, Motet, Romantic Period, Sacred Music, Te Deum
Лейбл: Deutsche Grammophon
Номер по каталогу: 0028946334027
Продолжительность: 00:54:27
Кодек: FLAC
Битрейт: Lossless
Тип рипа: image +.cue
Треклист:
Mozart: "Coronation" Mass in C major, KV 317
01. Kyrie (03:30)
02. Gloria (04:22)
03. Credo (07:15)
04. Sanctus (02:08)
05. Benedictus (03:26)
06. Agnus Dei (07:35)
Bruckner:Te Deum for soloists, chorus and orchestra
07. Te Deum (07:11)
08. Te ergo (02:54)
09. Aeterna fac (01:47)
10. Salvum fac (07:06)
11. In te, Domine, speravi (07:13)

Дополнительная информация&#58;

Моцарт сочинил эту мессу в марте 1779. Вероятнее всего, она предназначалась для исполнения на мессе дня Пасхи.
«Коронационной» Месса до мажор стала называться уже после смерти Моцарта. Откуда такое наименование? Бытовавшее долгое время мнение, что она предназначалась для службы коронации чудотворного образа Богородицы в паломнической церкви Мария Пляйн на окраине Зальцбурга, не подтверждается ни на какими документальными основаниями. На самом же деле причина в том, что впоследствии эта месса исполнялась при коронациях: в Праге в 1791 г. во время коронации Леопольда II королем Богемии (дирижировал Сальери), а двумя годами позже – на коронации его преемника Франца II.

Composer: Wolfgang Amadeus Mozart (1756-1791); Anton Bruckner (1824-1896)
Conductor: Herbert von Karajan
Ensemble: Vienna Philharmonic Orchestra
Performer: Rudolf Scholz - organ
Kathleen Battle - soprano
Janet Perry - soprano
Trudeliese Schmidt - contralto
Helga Müller-Molinari - contralto
Gösta Winbergh - tenor
Ferruccio Furlanetto - bass
Alexander Malta - bass

ЕАС - log&#58;

Код:
Exact Audio Copy V1.0 beta 3 from 29. August 2011
EAC extraction logfile from 29. April 2014, 9:39
Herbert von Karajan / Mozart - 'Krönungsmesse'; Bruckner - Te Deum - Karajan
Used drive  : TSSTcorpCDDVDW SH-222BB   Adapter: 2  ID: 1
Read mode               : Secure
Utilize accurate stream : Yes
Defeat audio cache      : Yes
Make use of C2 pointers : No
Read offset correction                      : 6
Overread into Lead-In and Lead-Out          : No
Fill up missing offset samples with silence : Yes
Delete leading and trailing silent blocks   : No
Null samples used in CRC calculations       : Yes
Used interface                              : Native Win32 interface for Win NT & 2000
Used output format              : User Defined Encoder
Selected bitrate                : 896 kBit/s
Quality                         : High
Add ID3 tag                     : No
Command line compressor         : C:\Program Files\Exact Audio Copy\FLAC\FLAC.EXE
Additional command line options : -8 -V -T "TITLE=%title%" -T "ARTIST=%artist%" -T "ALBUMARTIST=%albumartist%" -T "ALBUM=%albumtitle%" -T "DATE=%year%" -T "TRACKNUMBER=%tracknr%" -T "TRACKTOTAL=%numtracks%" -T "GENRE=%genre%" -T "COMMENT=%comment%" -T "PERFORMER=%albuminterpret%" -T "COMPOSER=%composer%" %source% -o %dest%
TOC of the extracted CD
     Track |   Start  |  Length  | Start sector | End sector
    ---------------------------------------------------------
        1  |  0:00.33 |  3:29.50 |        33    |    15757
        2  |  3:30.08 |  4:22.25 |     15758    |    35432
        3  |  7:52.33 |  7:15.25 |     35433    |    68082
        4  | 15:07.58 |  2:08.12 |     68083    |    77694
        5  | 17:15.70 |  3:26.00 |     77695    |    93144
        6  | 20:41.70 |  7:34.63 |     93145    |   127257
        7  | 28:16.58 |  7:10.50 |    127258    |   159557
        8  | 35:27.33 |  2:53.50 |    159558    |   172582
        9  | 38:21.08 |  1:47.07 |    172583    |   180614
       10  | 40:08.15 |  7:06.15 |    180615    |   212579
       11  | 47:14.30 |  7:13.03 |    212580    |   245057
Range status and errors
Selected range
     Filename G:\Ripped general\[dg.020] Mozart – 'Krönungsmesse'; Bruckner – Te Deum – Karajan\Mozart - 'Krönungsmesse'; Bruckner - Te Deum - Karajan.wav
     Peak level 89.0 %
     Extraction speed 2.3 X
     Range quality 100.0 %
     Test CRC DC90C649
     Copy CRC DC90C649
     Copy OK
No errors occurred
AccurateRip summary
Track  1  accurately ripped (confidence 10)  [CD140141]  (AR v2)
Track  2  accurately ripped (confidence 10)  [4730AF1D]  (AR v2)
Track  3  accurately ripped (confidence 10)  [138B493F]  (AR v2)
Track  4  accurately ripped (confidence 10)  [738CFA49]  (AR v2)
Track  5  accurately ripped (confidence 10)  [C76C3959]  (AR v2)
Track  6  accurately ripped (confidence 10)  [940650A0]  (AR v2)
Track  7  accurately ripped (confidence 10)  [F29C5D5F]  (AR v2)
Track  8  accurately ripped (confidence 10)  [EC03B9C4]  (AR v2)
Track  9  accurately ripped (confidence 10)  [5663A61B]  (AR v2)
Track 10  accurately ripped (confidence 10)  [DCC32D09]  (AR v2)
Track 11  accurately ripped (confidence 10)  [A4974FDB]  (AR v2)
All tracks accurately ripped
End of status report
==== Log checksum 688AA0300F28E29718007D317DD05BAD17911F1BF1B345BD46B4B968BCB5EBB4 ====

auCDtect - log&#58;

Код:
-----------------------
DON'T MODIFY THIS FILE
-----------------------
PERFORMER: auCDtect Task Manager, ver. 1.5.1RC6 build 1.5.1.7
Copyright (c) 2008-2010 y-soft. All rights reserved
http://y-soft.org
ANALYZER: auCDtect: CD records authenticity detector, version 0.8.2
Copyright (c) 2004 Oleg Berngardt. All rights reserved.
Copyright (c) 2004 Alexander Djourik. All rights reserved.
FILE: Mozart - Kronungsmesse; Bruckner - Te Deum - Karajan.flac
  Size: 245751073 Hash: E9C0EBF125C281401FDE37B56907BEAA Accuracy: -m0
  Conclusion: CDDA 100%
  Signature: 3FEEE501DA95E4D723C5C8ED400E3336ECDA7064

cue sheet (*.cue&#41;&#58;&#58;

Код:
REM GENRE Classical
REM DATE 1986
REM DISCID 850CC30B
REM COMMENT "ExactAudioCopy v1.0b3"
CATALOG 0028942998025
PERFORMER "Herbert von Karajan"
TITLE "Mozart - Kronungsmesse; Bruckner - Te Deum - Karajan"
FILE "Mozart - Kronungsmesse; Bruckner - Te Deum - Karajan.flac" WAVE
  TRACK 01 AUDIO
    TITLE "Mozart - Krцnungsmesse - Kyrie"
    PERFORMER "Herbert von Karajan"
    ISRC DEF058500850
    INDEX 00 00:00:00
    INDEX 01 00:00:33
  TRACK 02 AUDIO
    TITLE "Mozart - Krцnungsmesse - Gloria"
    PERFORMER "Herbert von Karajan"
    ISRC DEF058500850
    INDEX 00 03:27:08
    INDEX 01 03:30:08
  TRACK 03 AUDIO
    TITLE "Mozart - Krцnungsmesse - Credo"
    PERFORMER "Herbert von Karajan"
    ISRC DEF058500850
    INDEX 00 07:50:40
    INDEX 01 07:52:33
  TRACK 04 AUDIO
    TITLE "Mozart - Krцnungsmesse - Sanctus"
    PERFORMER "Herbert von Karajan"
    ISRC DEF058500850
    INDEX 00 15:06:33
    INDEX 01 15:07:58
  TRACK 05 AUDIO
    TITLE "Mozart - Krцnungsmesse - Benedictus"
    PERFORMER "Herbert von Karajan"
    ISRC DEF058500850
    INDEX 01 17:15:70
  TRACK 06 AUDIO
    TITLE "Mozart - Krцnungsmesse - Agnus Dei"
    PERFORMER "Herbert von Karajan"
    ISRC DEF058500850
    INDEX 00 20:40:70
    INDEX 01 20:41:70
  TRACK 07 AUDIO
    TITLE "Bruckner - Te Deum - Te Deum"
    PERFORMER "Herbert von Karajan"
    ISRC DEF058400970
    INDEX 00 28:07:33
    INDEX 01 28:16:58
  TRACK 08 AUDIO
    TITLE "Bruckner - Te Deum - Te ergo"
    PERFORMER "Herbert von Karajan"
    ISRC DEF058400970
    INDEX 00 35:26:33
    INDEX 01 35:27:33
  TRACK 09 AUDIO
    TITLE "Bruckner - Te Deum - Aeterna fac"
    PERFORMER "Herbert von Karajan"
    ISRC DEF058400970
    INDEX 00 38:20:33
    INDEX 01 38:21:08
  TRACK 10 AUDIO
    TITLE "Bruckner - Te Deum - Salvum fac"
    PERFORMER "Herbert von Karajan"
    ISRC DEF058400970
    INDEX 01 40:08:15
  TRACK 11 AUDIO
    TITLE "Bruckner - Te Deum - In te, Domine, speravi"
    PERFORMER "Herbert von Karajan"
    ISRC DEF058400970
    INDEX 01 47:14:30
Other forum [Profile] [PM]
Display posts from previous:    
Reply to topic

The time now is: Today 00:05

All times are GMT + 3 Hours



You cannot post new topics in this forum
You cannot reply to topics in this forum
You cannot edit your posts in this forum
You cannot delete your posts in this forum
You cannot vote in polls in this forum
You cannot attach files in this forum
You cannot download files in this forum