Today is a free download without charge Download

Владимир Высоцкий - Грустный романс. Песни о любви (2003) [FLAC|Lossless]<Авторская песня>

Reply to topic
 
Author
Message

sashau ®

Gender:

Longevity: 8 years 11 months

Posts: 3497

Торрент-статистика

Post 17-Feb-2015 15:30

[Quote]

Владимир Высоцкий - Грустный романс. Песни о любви - Год: 2003
Жанр: Авторская песня
Label: Solyd Records
Catalog #: slr 0340
Продолжительность: 00:42:41
Кодек: FLAC
Битрейт: Lossless
Тип рипа: image + .cue
Треклист:
01. Татуировка (1:56)
02. 'Красное, зеленое…' (0:45)
03. Рыжая шалава (1:00)
04. 'У тебя глаза, как нож…' (1:26)
05. 'Я женщин не бил до семнадцати лет…' (2:53)
06. Грустный романс (2:30)
07. 'Я любил и женщин, и проказы…' (1:48)
08. Наводчица (1:42)
09. О нашей встрече что там говорить (2:56)
10. 'То была не интрижка…' (1:24)
11. Про любовь в Каменном веке (1:24)
12. Песня про плотника Иосифа, Деву Марию, Святого духа и непорочное зачатие (2:07)
13. Семейные дела в Древнем Риме (2:31)
14. Про любовь в средние века (2:52)
15. Про любовь в эпоху Возрождения (4:09)
16. Про нашу любовь (1:49)
17. Ноль семь (2:30)
18. Нейтральная полоса (2:11)
19. Письмо на выставку (2:24)
20. Письмо с выставки (2:23)

Отчёт ЕАС&#58;

Код:
Exact Audio Copy V1.0 beta 3 from 29. August 2011
EAC extraction logfile from 22. October 2013, 12:17
Владимир Высоцкий / Грустный романс_песни о любви
Used drive  : PLEXTOR DVDR   PX-712A   Adapter: 0  ID: 0
Read mode               : Secure
Utilize accurate stream : Yes
Defeat audio cache      : Yes
Make use of C2 pointers : No
Read offset correction                      : 30
Overread into Lead-In and Lead-Out          : No
Fill up missing offset samples with silence : Yes
Delete leading and trailing silent blocks   : No
Null samples used in CRC calculations       : Yes
Used interface                              : Native Win32 interface for Win NT & 2000
Used output format : Internal WAV Routines
Sample format      : 44.100 Hz; 16 Bit; Stereo
TOC of the extracted CD
     Track |   Start  |  Length  | Start sector | End sector
    ---------------------------------------------------------
        1  |  0:00.00 |  1:55.45 |         0    |     8669
        2  |  1:55.45 |  0:45.17 |      8670    |    12061
        3  |  2:40.62 |  1:00.00 |     12062    |    16561
        4  |  3:40.62 |  1:25.62 |     16562    |    22998
        5  |  5:06.49 |  2:53.37 |     22999    |    36010
        6  |  8:00.11 |  2:30.10 |     36011    |    47270
        7  | 10:30.21 |  1:48.00 |     47271    |    55370
        8  | 12:18.21 |  1:41.60 |     55371    |    63005
        9  | 14:00.06 |  2:55.72 |     63006    |    76202
       10  | 16:56.03 |  1:24.21 |     76203    |    82523
       11  | 18:20.24 |  1:24.15 |     82524    |    88838
       12  | 19:44.39 |  2:07.34 |     88839    |    98397
       13  | 21:51.73 |  2:30.49 |     98398    |   109696
       14  | 24:22.47 |  2:52.00 |    109697    |   122596
       15  | 27:14.47 |  4:09.06 |    122597    |   141277
       16  | 31:23.53 |  1:49.01 |    141278    |   149453
       17  | 33:12.54 |  2:29.46 |    149454    |   160674
       18  | 35:42.25 |  2:11.09 |    160675    |   170508
       19  | 37:53.34 |  2:24.37 |    170509    |   181345
       20  | 40:17.71 |  2:23.02 |    181346    |   192072
Range status and errors
Selected range
     Filename D:\музыка\flacmusic.ru-Rip by moote\Российские исполнители\Владимир Высоцкий - Грустный романс_песни о любви.wav
     Peak level 97.2 %
     Extraction speed 4.6 X
     Range quality 100.0 %
     Test CRC 61808F53
     Copy CRC 61808F53
     Copy OK
No errors occurred
AccurateRip summary
Track  1  not present in database
Track  2  not present in database
Track  3  not present in database
Track  4  not present in database
Track  5  not present in database
Track  6  not present in database
Track  7  not present in database
Track  8  not present in database
Track  9  not present in database
Track 10  not present in database
Track 11  not present in database
Track 12  not present in database
Track 13  not present in database
Track 14  not present in database
Track 15  not present in database
Track 16  not present in database
Track 17  not present in database
Track 18  not present in database
Track 19  not present in database
Track 20  not present in database
None of the tracks are present in the AccurateRip database
End of status report
==== Log checksum DE14EDEB8F498835DC02FF32B6BA7F4A770EE6AC93B64574473499D7741BB95B ====

Отчёт auCDtect Task manager&#58;

Код:
-----------------------
DON'T MODIFY THIS FILE
-----------------------
PERFORMER: auCDtect Task Manager, ver. 1.6.0 RC1 build 1.6.0.1
Copyright (c) 2008-2010 y-soft. All rights reserved
http://y-soft.org
ANALYZER: auCDtect: CD records authenticity detector, version 0.8.2
Copyright (c) 2004 Oleg Berngardt. All rights reserved.
Copyright (c) 2004 Alexander Djourik. All rights reserved.
FILE: Владимир Высоцкий - Грустный романс_песни о любви.flac
  Size: 213151704 Hash: F366DD3DD01E65BD09D95AC1D0492D6B Accuracy: -m0
  Conclusion: CDDA 100%
  Signature: 3E51F9F76C7B078747F6E4EFAF3C25F3EA66A87D
-
Other forum [Profile] [PM]
Similar theme
Forum Topic Author Torrent Replies Last Post
./templates/default/images/folder_dl.gif Фантастика, фэнтези, ужасы, мистика Владимир Охременко | На краю сознания (2016) [FB2] }{@R0N
1 | 0

0 | 1425

4

2019-01-13 18:01
}{@R0N Latest
Display posts from previous:    
Reply to topic

The time now is: Today 23:05

All times are GMT + 3 Hours



You cannot post new topics in this forum
You cannot reply to topics in this forum
You cannot edit your posts in this forum
You cannot delete your posts in this forum
You cannot vote in polls in this forum
You cannot attach files in this forum
You cannot download files in this forum