Сегодня идет свободное скачивание без начисления Download

Маска Зорро / The Mask of Zorro (Мартин Кэмпбелл) [1998 г., боевик, мелодрама, приключения, вестерн, BDRip-AVC]

Ответить на тему
 
Автор
Сообщение

centrashi ®

Пол:

Стаж: 4 года 10 месяцев

Сообщений: 53

Откуда: Украина

Торрент-статистика

Пост 15-Мар-2012 12:08

[Цитировать]

Маска Зорро / The Mask of Zorro
Русское название: Маска Зорро
Оригинальное название:The Mask of Zorro
Год выпуска: 1998
Режиссер: Мартин Кэмпбелл
В ролях: Антонио Бандерас, Энтони Хопкинс, Кэтрин Зета-Джонс, Иоланда Орисага, Пако Морайта, Уильям Маркес, Стюарт Уилсон, Тони Амендола, Диего Сиерес, Педро Альтамирано
Страна: США, Германия
Продолжительность: 136 мин. / 02:16
Продюссер: Даг Клейборн, Дэвид Фостер, Джон Герц
Сценарий: Джонстон МакКалли, Тед Эллиот, Терри Россио
Премьера в мире: 17 июля 1998
Жанр: боевик, мелодрама, приключения, вестерн
Перевод:Профессиональный(полное дублирование)
Бюджет: $95 000 000
Описание: Стареющий герой, отдавший все силы борьбе за справедливость, проведший десятилетия в темнице, потерявший жену и дочь, передает свои знания, умения и черную маску молодому отчаянному бойцу, который отныне и будет сражаться с теми, кто вершит зло.
PG-13 - Детям до 13 лет просмотр не желателен
6.70 (67 824)

Качество: BDRip-AVC
Формат: MKV
Видео кодек: H.26x
Аудио кодек: AC3
Видео: MPEG4 Video (H264) 1024x426 23.98fps
Аудио: Dolby AC3 48000Hz 6ch

MediaInfo

Код:
Полное имя                       : D:\скчаное с торрента\Maska.Zorro.1998.x264.BDRip.(AVC).mkv
Формат                           : Matroska
Версия формата                   : Version 2
Размер файла                     : 2,43 Гбайт
Продолжительность                : 2 ч. 17 м.
Общий поток                      : 2530 Кбит/сек
Дата кодирования                 : UTC 2011-09-30 16:08:27
Программа кодирования            : mkvmerge v4.6.0 ('Still Crazy After All These Years') сборка от Apr  1 2011 21:01:49
Библиотека кодирования           : libebml v1.2.0 + libmatroska v1.1.0
Видео
Идентификатор                    : 1
Формат                           : AVC
Формат/Информация                : Advanced Video Codec
Профиль формата                  : [email protected]
Параметр CABAC формата           : Да
Параметр ReFrames формата        : 4 кадра
Идентификатор кодека             : V_MPEG4/ISO/AVC
Продолжительность                : 2 ч. 17 м.
Битрейт                          : 2081 Кбит/сек
Ширина                           : 1024 пикселя
Высота                           : 426 пикселей
Соотношение сторон               : 2,40:1
Частота кадров                   : 23,976 кадра/сек
Цветовое пространство            : YUV
Субдискретизация насыщенности    : 4:2:0
Битовая глубина                  : 8 бит
Тип развёртки                    : Прогрессивная
Бит/(Пиксели*Кадры)              : 0.199
Размер потока                    : 1,95 Гбайт (80%)
Библиотека кодирования           : x264 core 115 r1936 7a9e08d
Настройки программы              : cabac=1 / ref=3 / deblock=1:0:0 / analyse=0x3:0x113 / me=hex / subme=4 / psy=1 / psy_rd=0.00:0.10 / mixed_ref=1 / me_range=16 / chroma_me=1 / trellis=2 / 8x8dct=1 / cqm=0 / deadzone=21,11 / fast_pskip=1 / chroma_qp_offset=-1 / threads=3 / sliced_threads=0 / nr=0 / decimate=1 / interlaced=0 / bluray_compat=0 / constrained_intra=0 / bframes=4 / b_pyramid=2 / b_adapt=2 / b_bias=0 / direct=1 / weightb=1 / open_gop=0 / weightp=2 / keyint=250 / keyint_min=23 / scenecut=40 / intra_refresh=0 / rc_lookahead=40 / rc=2pass / mbtree=1 / bitrate=2081 / ratetol=1.0 / qcomp=0.60 / qpmin=0 / qpmax=69 / qpstep=4 / cplxblur=20.0 / qblur=0.5 / ip_ratio=1.40 / aq=1:1.00
Аудио
Идентификатор                    : 2
Формат                           : AC-3
Формат/Информация                : Audio Coding 3
Расширение режима                : CM (complete main)
Идентификатор кодека             : A_AC3
Продолжительность                : 2 ч. 17 м.
Вид битрейта                     : Постоянный
Битрейт                          : 448 Кбит/сек
Каналы                           : 6 каналов
Расположение каналов             : Front: L C R, Side: L R, LFE
Частота                          : 48,0 КГц
Битовая глубина                  : 16 бит
Метод сжатия                     : С потерями
Размер потока                    : 441 Мбайт (18%)

Скриншоты

               

_________________
Бороться и искать, найти и не сдваться.


Последний раз редактировалось: centrashi (2012-03-16 14:36), всего редактировалось 7 раз(а)
Вне форума [Профиль] [ЛС]
Показать сообщения:    
Ответить на тему

Текущее время: Сегодня 01:17

Часовой пояс: GMT + 3



Вы не можете начинать темы
Вы не можете отвечать на сообщения
Вы не можете редактировать свои сообщения
Вы не можете удалять свои сообщения
Вы не можете голосовать в опросах
Вы не можете прикреплять файлы к сообщениям
Вы не можете скачивать файлы