Сегодня идет свободное скачивание без начисления Download

Студия 54 / 54 [Марк Кристофер] (Драма) (1998) BDRip

Ответить на тему
 
Автор
Сообщение

Nugeiro ®

Пол:

Стаж: 5 лет 8 месяцев

Сообщений: 2242

Откуда: Украина, Шостка

Торрент-статистика

Пост 26-Мар-2012 13:56

[Цитировать]

Студия 54 / 54- Год выпуска: 1998
Жанр: Драма
Описание фильма:
«Студия 54» была самым популярным клубом Нью-Йорка. Случайно попасть туда было невозможно. Но оказавшись однажды, ты хотел остаться навсегда. Это история о знаменитом вертепе и его людях. О простом парне, чудом оказавшемся здесь. О наркотиках и беспорядочном сексе. О попытках заставить мечты сбыться любой ценой. Об оборотной стороне славы. О любви и разочарованиях. А также о последствиях всего этого.
Режиссер: Марк Кристофер
Актеры: Райан Филипп, Сальма Хайек, Нив Кэмпбелл, Майк Майерс, Села Уорд, Брекин Мейер, Шерри Стрингфилд, Эллен Альбертини Дау...
Качество видео: BDRip (источник: Blu-Ray Remux / 1080р)
Продолжительность: 01:40:13
Субтитры: Русские, Английские (отдельно)
Перевод: Профессиональный (многоголосый, закадровый) / Профессиональный (многоголосый, закадровый) РТР
Видео: XviD build 72, 704x384 (1.83:1), 2105 kbps avg, 0.32 bit/pix
Аудио 1: AC3 Dolby Digital, 3/2 (L,C,R,l,r)+LFE ch, 448 kbps avg многоголосый
Аудио 2: 48 kHz, AC3 Dolby Digital, 1/0 (C) ch, 96 kbps avg многоголосый РТР
Аудио 3: AC3 Dolby Digital, 3/2 (L,C,R,l,r)+LFE ch, 448 kbps avg английский

MediaInfo:

Общее
Полное имя : C:\ZIM\Torrents\54\Studiya_54_BDRip\Studiya.54.1998.BDRip.avi
Формат : AVI
Формат/Информация : Audio Video Interleave
Профиль формата : OpenDML
Размер файла : 2,18 Гбайт
Продолжительность : 1 ч. 40 м.
Общий поток : 3121 Кбит/сек
Название фильма : Студия 54 / 54 (1998) BDRip
Режиссёр : yaroslaigor
Жанр : драма, история
Программа кодирования : VirtualDubMod 1.5.10.2 (build 2540/release)
Правообладатель : hqclub
Видео
Идентификатор : 0
Формат : MPEG-4 Visual
Профиль формата : Advanced [email protected]
Параметр BVOP формата : 1
Параметр QPel формата : Нет
Параметр GMC формата : Без точки перехода
Параметр матрицы формата : Выборочная
Идентификатор кодека : XVID
Идентификатор кодека/Подсказка : XviD
Продолжительность : 1 ч. 40 м.
Битрейт : 2105 Кбит/сек
Ширина : 704 пикселя
Высота : 384 пикселя
Соотношение сторон : 16:9
Частота кадров : 23,976 кадра/сек
Цветовое пространство : YUV
Субдискретизация насыщенности : 4:2:0
Битовая глубина : 8 бит
Тип развёртки : Прогрессивная
Метод сжатия : С потерями
Бит/(Пиксели*Кадры) : 0.325
Размер потока : 1,47 Гбайт (67%)
Библиотека кодирования : XviD 72
Аудио #1
Идентификатор : 1
Формат : AC-3
Формат/Информация : Audio Coding 3
Расширение режима : CM (complete main)
Идентификатор кодека : 2000
Продолжительность : 1 ч. 40 м.
Вид битрейта : Постоянный
Битрейт : 448 Кбит/сек
Каналы : 6 каналов
Расположение каналов : Front: L C R, Side: L R, LFE
Частота : 48,0 КГц
Битовая глубина : 16 бит
Метод сжатия : С потерями
Размер потока : 321 Мбайт (14%)
Выравнивание : Разделение по промежуткам
Продолжительность промежутка : 42 мс. (1,00 видеокадр)
Время предзагрузки промежутка : 500 мс.
Аудио #2
Идентификатор : 2
Формат : AC-3
Формат/Информация : Audio Coding 3
Расширение режима : CM (complete main)
Идентификатор кодека : 2000
Продолжительность : 1 ч. 40 м.
Вид битрейта : Постоянный
Битрейт : 96,0 Кбит/сек
Каналы : 1 канал
Расположение каналов : Front: C
Частота : 48,0 КГц
Битовая глубина : 16 бит
Метод сжатия : С потерями
Размер потока : 68,8 Мбайт (3%)
Выравнивание : Разделение по промежуткам
Продолжительность промежутка : 42 мс. (1,00 видеокадр)
Время предзагрузки промежутка : 500 мс.
Аудио #3
Идентификатор : 3
Формат : AC-3
Формат/Информация : Audio Coding 3
Расширение режима : CM (complete main)
Идентификатор кодека : 2000
Продолжительность : 1 ч. 40 м.
Вид битрейта : Постоянный
Битрейт : 448 Кбит/сек
Каналы : 6 каналов
Расположение каналов : Front: L C R, Side: L R, LFE
Частота : 48,0 КГц
Битовая глубина : 16 бит
Метод сжатия : С потерями
Размер потока : 321 Мбайт (14%)
Выравнивание : Разделение по промежуткам
Продолжительность промежутка : 42 мс. (1,00 видеокадр)
Время предзагрузки промежутка : 500 мс.
         
       

_________________
Вне форума [Профиль] [ЛС]
Похожие темы
Форум Тема Автор Торрент Отв. Посл. сообщение
./templates/default/images/folder_dl.gif Обучающее видео Олег Пащенко (cmart), лекция в студии Лебедева - Аскетика и Дизайн (2009), плюс Людвиг Быстроновский и Богдан Кравцов Omen
0 | 1

0 | 521

0

2013-01-14 21:03
Omen Последнее
./templates/default/images/folder_dl.gif Скрипты и шаблоны Шаблоны сайта - 500 шаблонов для Joomla 2.5-3.x от 11 студий (Обновляемая) Omen
1 | 0

2 | 2269

31

2014-09-18 06:15
RUGUI Последнее
./templates/default/images/folder_dl.gif Обучающее видео [profileschool] Алексей Довгуля | Студийная съемка (2014) PCRec Omen
1 | 0

0 | 1279

86

2014-09-28 20:05
Omen Последнее
Показать сообщения:    
Ответить на тему

Текущее время: Сегодня 13:33

Часовой пояс: GMT + 3



Вы не можете начинать темы
Вы не можете отвечать на сообщения
Вы не можете редактировать свои сообщения
Вы не можете удалять свои сообщения
Вы не можете голосовать в опросах
Вы не можете прикреплять файлы к сообщениям
Вы не можете скачивать файлы