Сегодня идет свободное скачивание без начисления Download

Миньон / The Minion [Жан-Марк Пише / Jean-Marc Piché], (США, Канада, Боевик, фэнтези, мистика, 1998) DVDRip

Ответить на тему
 
Автор
Сообщение

Varius ®

Пол:

Стаж: 6 лет 8 месяцев

Сообщений: 3922

Откуда: Hell

Торрент-статистика

Пост 01-Апр-2012 11:54

[Цитировать]

Миньон / The Minion (1998) DVDRip- Русское название: Миньон
Оригинальное название: The Minion
Производство: США, Канада
Год выпуска: 1998
Жанр: Боевик, фэнтези, мистика
Описание фильма:
В канун Рождества 1999 года метростроители Нью-Йорка находят 800-летний скелет и таинственный ключ. Новость относительно открытия достигает древнего монастыря, обитатели которого должны защищать святую реликвию. И они направляют своего лучшего воина — Лукаса.
Две тысячи лет назад за низвергнутым Люцифером захлопнулись врата бездны, и теперь бессмертный Фаворит дьявола получил возможность освободить своего хозяина и превратить Нью-Йорк в Армагеддон.
Режиссер: Жан-Марк Пише / Jean-Marc Piché
Актеры: Дольф Лундгрен, Франсуаза Робертсон, Аллен Олтмэн, Андерсон С. Брэдшоу, Майкл Грейес, Дэвид Нерман, Тони Карабретта
Продолжительность: 01:34:40
Перевод: Многоголосый закадровый

Видеокодек: Xvid
Битрейт видео: ~998 Кбит/с
Размер кадра: 640x464
Качество видео: DVDRip
Аудиокодек: MP3, 2ch
Битрейт аудио: 128 Кбит/с

MediaInfo:

Общее
Полное имя : C:\Justlan\Миньон\Minjon.avi
Формат : AVI
Формат/Информация : Audio Video Interleave
Размер файла : 746 Мбайт
Продолжительность : 1 ч. 31 м.
Общий поток : 1135 Кбит/сек
Программа кодирования : VirtualDubMod 1.5.10.2 (build 2540/release)
Библиотека кодирования : VirtualDubMod build 2540/release
Видео
Идентификатор : 0
Формат : MPEG-4 Visual
Профиль формата : [email protected]
Параметр BVOP формата : 2
Параметр QPel формата : Нет
Параметр GMC формата : Без точки перехода
Параметр матрицы формата : Default (H.263)
Режим смешивания : Сжатый битовый поток
Идентификатор кодека : XVID
Идентификатор кодека/Подсказка : XviD
Продолжительность : 1 ч. 31 м.
Битрейт : 998 Кбит/сек
Ширина : 640 пикселей
Высота : 464 пикселя
Соотношение сторон : 1,379
Частота кадров : 25,000 кадров/сек
Цветовое пространство : YUV
Субдискретизация насыщенности : 4:2:0
Битовая глубина : 8 бит
Тип развёртки : Прогрессивная
Метод сжатия : С потерями
Бит/(Пиксели*Кадры) : 0.134
Размер потока : 656 Мбайт (88%)
Библиотека кодирования : XviD 1.0.3 (UTC 2004-12-20)
Аудио
Идентификатор : 1
Формат : MPEG Audio
Версия формата : Version 1
Профиль формата : Layer 3
Режим : Joint stereo
Расширение режима : MS Stereo
Идентификатор кодека : 55
Идентификатор кодека/Подсказка : MP3
Продолжительность : 1 ч. 31 м.
Вид битрейта : Постоянный
Битрейт : 128 Кбит/сек
Каналы : 2 канала
Частота : 48,0 КГц
Метод сжатия : С потерями
Размер потока : 84,1 Мбайт (11%)
Выравнивание : Соединение по промежуткам
Продолжительность промежутка : 40 мс. (1,00 видеокадр)
Время предзагрузки промежутка : 504 мс.
Скриншоты:          

_________________

Создавая "Новую папку", не считайте себя Создателем - это право Вам дано Админом




Последний раз редактировалось: Varius (2012-04-01 12:35), всего редактировалось 1 раз
Вне форума [Профиль] [ЛС]
Показать сообщения:    
Ответить на тему

Текущее время: Сегодня 13:28

Часовой пояс: GMT + 3



Вы не можете начинать темы
Вы не можете отвечать на сообщения
Вы не можете редактировать свои сообщения
Вы не можете удалять свои сообщения
Вы не можете голосовать в опросах
Вы не можете прикреплять файлы к сообщениям
Вы не можете скачивать файлы