Сегодня идет свободное скачивание без начисления Download

Оскар / Oscar (Джон Лэндис / John Landis) [1991 г., Комедия, HDTVRip-AVC] AVO (Гаврилов, Живов, Горчаков, Прямостанов)

Ответить на тему
 
Автор
Сообщение

Clavik ®

Пол:

Стаж: 3 года 2 месяца

Сообщений: 2498

Откуда: Украина

Торрент-статистика

Пост 28-Мар-2015 12:19

[Цитировать]

Оскар / Oscar
«It's a comedy of criminal proportions!»
- Год выпуска: 1991
Страна: США
Жанр: Комедия
Продолжительность: 01:49:29
Перевод: Авторский (одноголосый, закадровый) - Гаврилов, Живов, Горчаков, Прямостанов
Русские субтитры: нет
Режиссер: Джон Лэндис / John Landis
В ролях: Сильвестр Сталлоне / Sylvester Stallone, Питер Ригерт / Peter Riegert, Чазз Палминтери / Chazz Palminteri, Орнелла Мути / Ornella Muti, Мариса Томей / Marisa Tomei, Дон Амиче / Don Ameche, Винсент Спано / Vincent Spano
Описание: У постели умирающего отца гангстер обещает прекратить преступную жизнь и стать легальным бизнесменом. Но невыносимая путаница и хаос в его доме приводят к тому, что завязать оказывается самой сложной работенкой из всех, что ему удавалось провернуть...

Качество видео: HDTVRip-AVC
Контейнер: MKV
Видео кодек: MPEG4-AVC / H.264
Видео: 1040x580 / 2468 kbps / 23,976 fps / 16:9 / High Profile 4.1
Аудио#1: 48 kHz, AC3 Dolby Digital, 3/2 (L,C,R,l,r) + LFE ch, ~448 kbps avg - Гаврилов
Аудио#2: 48 kHz, AC3 Dolby Digital, 3/2 (L,C,R,l,r) + LFE ch, ~448 kbps avg - Живов
Аудио#3: 48 kHz, AC3 Dolby Digital, 2/0 (L,R) ch, ~192 kbps - Горчаков
Аудио#3: 48 kHz, AC3 Dolby Digital, 2/0 (L,R) ch, ~192 kbps - Прямостанов

Media Info

Формат : Matroska
Версия формата : Version 4 / Version 2
Размер файла : 2,87 Гбайт
Продолжительность : 1 ч. 49 м.
Общий поток : 3751 Кбит/сек
Дата кодирования : UTC 2015-01-29 10:02:41
Программа кодирования : mkvmerge v7.5.0 ('Glass Culture') 64bit built on Jan 4 2015 16:48:44
Библиотека кодирования : libebml v1.3.1 + libmatroska v1.4.2
DURATION : 01:49:29.568000000
NUMBER_OF_FRAMES : 205299
NUMBER_OF_BYTES : 157669632
_STATISTICS_WRITING_APP : mkvmerge v7.5.0 ('Glass Culture') 64bit built on Jan 4 2015 16:48:44
_STATISTICS_WRITING_DATE_UTC : 2015-01-29 10:02:41
_STATISTICS_TAGS : BPS DURATION NUMBER_OF_FRAMES NUMBER_OF_BYTES
Видео
Идентификатор : 1
Формат : AVC
Формат/Информация : Advanced Video Codec
Профиль формата : [email protected]
Параметр CABAC формата : Да
Параметр ReFrames формата : 8 кадров
Идентификатор кодека : V_MPEG4/ISO/AVC
Продолжительность : 1 ч. 49 м.
Битрейт : 2396 Кбит/сек
Ширина : 1040 пикселей
Высота : 580 пикселей
Соотношение сторон : 16:9
Режим частоты кадров : Постоянный
Частота кадров : 23,976 кадра/сек
Цветовое пространство : YUV
Субдискретизация насыщенности : 4:2:0
Битовая глубина : 8 бит
Тип развёртки : Прогрессивная
Бит/(Пиксели*Кадры) : 0.166
Размер потока : 1,83 Гбайт (64%)
Библиотека кодирования : x264 core 142 r2491 24e4fed
Настройки программы : cabac=1 / ref=8 / deblock=1:-3:-3 / analyse=0x3:0x113 / me=umh / subme=11 / psy=1 / psy_rd=1.15:0.15 / mixed_ref=1 / me_range=32 / chroma_me=1 / trellis=2 / 8x8dct=1 / cqm=0 / deadzone=21,11 / fast_pskip=1 / chroma_qp_offset=-3 / threads=12 / lookahead_threads=2 / sliced_threads=0 / nr=0 / decimate=1 / interlaced=0 / bluray_compat=0 / constrained_intra=0 / bframes=8 / b_pyramid=2 / b_adapt=2 / b_bias=0 / direct=1 / weightb=1 / open_gop=0 / weightp=2 / keyint=250 / keyint_min=23 / scenecut=40 / intra_refresh=0 / rc=crf / mbtree=0 / crf=19.0 / qcomp=0.60 / qpmin=0 / qpmax=69 / qpstep=4 / ip_ratio=1.46 / pb_ratio=1.30 / aq=1:1.00
Язык : English
Default : Да
Forced : Нет
DURATION : 01:49:29.563000000
NUMBER_OF_FRAMES : 157512
NUMBER_OF_BYTES : 2027095978
_STATISTICS_WRITING_APP : mkvmerge v7.5.0 ('Glass Culture') 64bit built on Jan 4 2015 16:48:44
_STATISTICS_WRITING_DATE_UTC : 2015-01-29 10:02:41
_STATISTICS_TAGS : BPS DURATION NUMBER_OF_FRAMES NUMBER_OF_BYTES
Аудио #1
Идентификатор : 2
Формат : AC-3
Формат/Информация : Audio Coding 3
Расширение режима : CM (complete main)
Параметр Endianness формата : Big
Идентификатор кодека : A_AC3
Продолжительность : 1 ч. 49 м.
Вид битрейта : Постоянный
Битрейт : 448 Кбит/сек
Каналы : 6 каналов
Расположение каналов : Front: L C R, Side: L R, LFE
Частота : 48,0 КГц
Битовая глубина : 16 бит
Метод сжатия : С потерями
Размер потока : 351 Мбайт (12%)
Заголовок : Gavrilov
Язык : Russian
Default : Да
Forced : Нет
Аудио #2
Идентификатор : 3
Формат : AC-3
Формат/Информация : Audio Coding 3
Расширение режима : CM (complete main)
Параметр Endianness формата : Big
Идентификатор кодека : A_AC3
Продолжительность : 1 ч. 49 м.
Вид битрейта : Постоянный
Битрейт : 448 Кбит/сек
Каналы : 6 каналов
Расположение каналов : Front: L C R, Side: L R, LFE
Частота : 48,0 КГц
Битовая глубина : 16 бит
Метод сжатия : С потерями
Размер потока : 351 Мбайт (12%)
Заголовок : Zhivov
Язык : Russian
Default : Нет
Forced : Нет
Аудио #3
Идентификатор : 4
Формат : AC-3
Формат/Информация : Audio Coding 3
Расширение режима : CM (complete main)
Параметр Endianness формата : Big
Идентификатор кодека : A_AC3
Продолжительность : 1 ч. 49 м.
Вид битрейта : Постоянный
Битрейт : 192 Кбит/сек
Каналы : 2 канала
Расположение каналов : Front: L R
Частота : 48,0 КГц
Битовая глубина : 16 бит
Метод сжатия : С потерями
Размер потока : 150 Мбайт (5%)
Заголовок : Gorchakov
Язык : Russian
Default : Нет
Forced : Нет
Аудио #4
Идентификатор : 5
Формат : AC-3
Формат/Информация : Audio Coding 3
Расширение режима : CM (complete main)
Параметр Endianness формата : Big
Идентификатор кодека : A_AC3
Продолжительность : 1 ч. 49 м.
Вид битрейта : Постоянный
Битрейт : 192 Кбит/сек
Каналы : 2 канала
Расположение каналов : Front: L R
Частота : 48,0 КГц
Битовая глубина : 16 бит
Метод сжатия : С потерями
Размер потока : 150 Мбайт (5%)
Заголовок : Pryamostanov
Язык : Russian
Default : Нет
Forced : Нет

log x.264

avs [info]: 1040x580p 1:1 @ 24000/1001 fps (cfr)
x264 [info]: using SAR=1/1
x264 [info]: using cpu capabilities: MMX2 SSE2Fast SSSE3 SSE4.2 AVX XOP FMA4 FMA3 LZCNT BMI1
x264 [info]: profile High, level 4.1
x264 [info]: frame I:1603 Avg QP:18.10 size: 79983
x264 [info]: frame P:33981 Avg QP:19.54 size: 25851
x264 [info]: frame B:121928 Avg QP:21.53 size: 8369
x264 [info]: consecutive B-frames: 1.6% 1.7% 3.8% 37.8% 13.4% 35.3% 3.5% 2.3% 0.6%
x264 [info]: mb I I16..4: 3.0% 82.0% 15.0%
x264 [info]: mb P I16..4: 0.2% 11.1% 1.8% P16..4: 31.4% 36.6% 13.2% 0.0% 0.0% skip: 5.7%
x264 [info]: mb B I16..4: 0.0% 1.0% 0.2% B16..8: 36.0% 19.5% 2.6% direct: 5.2% skip:35.4% L0:36.7% L1:48.3% BI:15.0%
x264 [info]: 8x8 transform intra:83.2% inter:57.0%
x264 [info]: coded y,uvDC,uvAC intra: 93.2% 82.3% 50.7% inter: 24.7% 19.1% 0.9%
x264 [info]: i16 v,h,dc,p: 42% 9% 12% 36%
x264 [info]: i8 v,h,dc,ddl,ddr,vr,hd,vl,hu: 15% 8% 7% 9% 12% 13% 11% 13% 12%
x264 [info]: i4 v,h,dc,ddl,ddr,vr,hd,vl,hu: 42% 5% 5% 6% 9% 11% 8% 8% 7%
x264 [info]: i8c dc,h,v,p: 32% 27% 24% 17%
x264 [info]: Weighted P-Frames: Y:6.1% UV:3.4%
x264 [info]: ref P L0: 44.8% 13.6% 20.6% 5.9% 5.5% 3.7% 3.6% 2.2% 0.2% 0.0%
x264 [info]: ref B L0: 82.1% 10.0% 3.6% 1.8% 1.3% 0.8% 0.4%
x264 [info]: ref B L1: 94.9% 5.1%
x264 [info]: kb/s:2468.47

Скриншоты

                   

_________________


Вне форума [Профиль] [ЛС]
Показать сообщения:    
Ответить на тему

Текущее время: Сегодня 14:48

Часовой пояс: GMT + 3



Вы не можете начинать темы
Вы не можете отвечать на сообщения
Вы не можете редактировать свои сообщения
Вы не можете удалять свои сообщения
Вы не можете голосовать в опросах
Вы не можете прикреплять файлы к сообщениям
Вы не можете скачивать файлы