Today is a free download without charge Download

Александр Медведев | 10 ноу-хау на съёмке, до которых вы не додумались (2013) PCRec

Reply to topic
 
Author
Message

Omen ®

Longevity: 7 years 10 months

Posts: 181087

Торрент-статистика

Post 03-Apr-2015 20:51

[Quote]

Александр Медведев
10 ноу-хау на съёмке, до которых вы не додумались
- Автор (режиссер): Александр Медведев
Жанр: Фотосъемка
Продолжительность: 04:41:40
Качество видео: PCRec
Видеокодек: AVC
Битрейт видео: ~30 - 781 kbps
Размер кадра: 768х432
Аудиокодек: AAC 2.0
Битрейт аудио: 125 - 129 kbps (CBR), 2 Ch, 44100 Hz
Описание:
Мастер-класс от Fotoshkola.net.
Темы мастер-класса:
Позирование, выбор ракурса, свет, экспозиция и другие моменты;
Как очень сильно облегчить себе жизнь в 10 конкретных советах с подробным разбором;
Как сэкономить себе пару лет хождения по граблям и поднять свой уровень скачком?
Бонус:
Александр Медведев - Системы ценностей и как с ними работать.
Дарья Булавина - Фотографии известных людей.

MediaInfo:

Код:
Общее
Полное имя                               : C:\Медведев А. - 10 ноу-хау на съёмке, до которых вы не додумались - 2013\Бонус\Булавина Д. - Фотографии известных людей.flv
Формат                                   : Flash Video
Размер файла                             : 84,2 Мбайт
Продолжительность                        : 59 м.
Общий поток                              : 198 Кбит/сек
Видео
Формат                                   : AVC
Формат/Информация                        : Advanced Video Codec
Профиль формата                          : [url=mailto:[email protected]][email protected][/url]
Параметр CABAC формата                   : Да
Параметр ReFrames формата                : 1 кадр
Параметр GOP формата                     : M=1, N=60
Идентификатор кодека                     : 7
Продолжительность                        : 59 м.
Битрейт                                  : 781 Кбит/сек
Ширина                                   : 768 пикселей
Высота                                   : 432 пикселя
Соотношение сторон                       : 16:9
Режим частоты кадров                     : Постоянный
Частота кадров                           : 5,000 кадров/сек
Цветовое пространство                    : YUV
Субдискретизация насыщенности            : 4:2:0
Битовая глубина                          : 8 бит
Тип развёртки                            : Прогрессивная
Бит/(Пиксели*Кадры)                      : 0.471
Размер потока                            : 333 Мбайт
Аудио
Формат                                   : AAC
Формат/Информация                        : Advanced Audio Codec
Профиль формата                          : LC
Идентификатор кодека                     : 10
Продолжительность                        : 59 м.
Битрейт                                  : 125 Кбит/сек
Каналы                                   : 2 канала
Расположение каналов                     : Front: L R
Частота                                  : 44,1 КГц
Метод сжатия                             : С потерями
Размер потока                            : 53,2 Мбайт (63%)
Скриншоты:
       

Дополнительные скриншоты:

       
 
Other forum [Profile] [PM]
Similar theme
Forum Topic Author Torrent Replies Last Post
./templates/default/images/folder_dl.gif Обучающее видео Александр Медведев | Дистанционный курс по фотографии (2014) PCRec Omen
1 | 0

0 | 2338

49

2014-12-25 20:39
Omen Latest
./templates/default/images/folder_dl.gif Отечественные cериалы Меч 2 (Пролог + Серии 01—20 из 20) (Алексей Луканев) [2015, криминал, SATRip] DED
1 | 0

0 | 1868

39

2015-06-15 18:54
DED Latest
./templates/default/images/folder_dl.gif Медицина и Здоровье Александр Шишкин | Массаж за 20 минут. Экспресс-курс для начинающих (2015) [FB2] Omen
1 | 0

0 | 1161

13

2015-09-01 18:52
Omen Latest
./templates/default/images/folder_dl.gif Справочники, энциклопедии и словари Алексей Афанасьев | Курс эффективной грамматики английского языка. Учебное пособие (2015) [PDF] Omen
1 | 0

0 | 779

9

2015-09-27 21:48
Omen Latest
./templates/default/images/folder_dl.gif Медицина и Здоровье Антон Алексеев | Благодарный позвоночник. Как навсегда избавить его от боли (2017) [PDF, EPUB] }{@R0N
1 | 0

0 | 5465

3

2017-10-22 20:39
}{@R0N Latest
./templates/default/images/folder_dl.gif Медицина и Здоровье Александр Мясников и др. | Пора лечиться правильно. Медицинская энциклопедия (2018) [PDF] }{@R0N
1 | 0

0 | 1366

12

2018-04-20 10:40
}{@R0N Latest
./templates/default/images/folder_dl.gif Разное Александр Матанцев | Поздравления от души (2018) [PDF] }{@R0N
1 | 0

0 | 1315

7

2018-10-21 17:47
}{@R0N Latest
./templates/default/images/folder_dl.gif Обучающая и развивающая литература, учебники Александр Горбачев, Дмитрий Котлеев | MICROSOFT WORD работайте с электронными документами в 10 раз быстрее, MICROSOFT EXCEL работайте с электронными таблицами в 10 раз быстрее [2007] [PDF] }{@R0N
1 | 0

0 | 1514

2

2019-02-27 20:56
}{@R0N Latest
./templates/default/images/folder_dl.gif Психология, Тренинг, Саморазвитие Александр Свияш | Как разумные люди создают безумный мир. Негативные эмоции. Поймать и обезвредить (2018) [PDF] }{@R0N
1 | 0

0 | 1828

2

2019-03-17 22:54
}{@R0N Latest
./templates/default/images/folder_dl.gif Отечественные cериалы Ментовские войны (Егор Абросимов, Алексей Богданов, Алан Дзоциев, Сергей Раевский) (Сезон 01–11 + 2 Эпилога + 4 фильма) [2004–2018, криминал, боевик, детектив, SATRip] DED
1 | 0

0 | 685

0

2020-03-02 16:37
DED Latest
Display posts from previous:    
Reply to topic

The time now is: Today 14:24

All times are GMT + 3 Hours



You cannot post new topics in this forum
You cannot reply to topics in this forum
You cannot edit your posts in this forum
You cannot delete your posts in this forum
You cannot vote in polls in this forum
You cannot attach files in this forum
You cannot download files in this forum