Сегодня идет свободное скачивание без начисления Download

Игрушка / Le Jouet (1976) (Франсис Вебер / Francis Veber) [H.264] [ Франция, Комедия, DVDRip]

Ответить на тему
 
Автор
Сообщение

Nugeiro ®

Пол:

Стаж: 5 лет 8 месяцев

Сообщений: 2242

Откуда: Украина, Шостка

Торрент-статистика

Пост 06-Апр-2012 17:38

[Цитировать]

Игрушка / Le Jouet (1976) - Русское название: Игрушка
Оригинальное название: Le Jouet
Год выпуска: 1976
Страна: Франция
Жанр: Комедия
Описание фильма:
Одна из лучших комедий с участием Пьера Ришара. Стать игрушкой для малолетнего миллионера - ситуация не для слабонервных. Герой ПьераРишара отлично справляется с ролью ужасного ребенка и, вместе сподопечным, отрывается на полную катушку. Остановить `детский беспредел` оказывается не так просто. Особенно если учесть, чтоФрансуа Перрен стал для ребенка единственным по-настоящему любимым человеком...
Режиссер: Франсис Вебер / Francis Veber
Актеры: Пьер Ришар, Мишель Буке, Фабрис Греко, Жак Франсуа, Даниэль Чекальди, Шарль Жерар, и др.- -Дата мировой премьеры: 8 декабря 1976
Релиз на DVD (РФ): 27 августа 2009, «CP-DIGITAL»
Продолжительность: 01:29:00
Перевод: Дубляж, Многоголосый закадровый
Субтитры: Русские
Вид субтитров: Вшитые отключаемые
Видеокодек: MPEG-4 AVC/H.264
Битрейт видео: ~2335 kbps
Размер кадра: [email protected] (1,618:1)
Качество видео: DVDRip
Аудио 1: 48 kHz, AC3 6 ch, Front: L C R, Rear: L R, LFE, ~448.00 kbps avg |Профессиональный многоголосый, закадровый|
Аудио 2: 48 kHz, AC3 2 ch, L R, ~256.00 kbps avg |Cоветский дубляж|
Аудио 3: 48 kHz, AC3 6 ch, Front: L C R, Rear: L R, LFE, ~448.00 kbps avg |Оригинальный, французский|
Сэмпл: Скачать

MI

Код:
General
Unique ID                                : 191155082049173492429139105284667003426 (0x8FCF213101AB9818B8B560210A08D222)
Complete name                            : C:\Users\Сергей\Downloads\Игрушка.mkv
Format                                   : Matroska
Format version                           : Version 1
File size                                : 2.19 GiB
Duration                                 : 1h 29mn
Overall bit rate                         : 3 491 Kbps
Movie name                               : (1976) Игрушка
Encoded date                             : UTC 2010-03-14 04:19:41
Writing application                      : mkvmerge v2.4.0 ('Fumbling Towards Ecstasy') built on Oct 11 2008 20:13:15
Writing library                          : libebml v0.7.7 + libmatroska v0.8.1
Video
ID                                       : 1
Format                                   : AVC
Format/Info                              : Advanced Video Codec
Format profile                           : [email protected]
Format settings, CABAC                   : Yes
Format settings, ReFrames                : 6 frames
Codec ID                                 : V_MPEG4/ISO/AVC
Duration                                 : 1h 29mn
Bit rate                                 : 2 335 Kbps
Width                                    : 656 pixels
Height                                   : 576 pixels
Display aspect ratio                     : 1.618
Original display aspect ratio            : 1.139
Frame rate mode                          : Variable
Frame rate                               : 25.000 fps
Color space                              : YUV
Chroma subsampling                       : 4:2:0
Bit depth                                : 8 bits
Scan type                                : Progressive
Bits/(Pixel*Frame)                       : 0.247
Stream size                              : 1.42 GiB (65%)
Title                                    : (1976) Игрушка - релиз подготовил -Джон Коннор- для [известный трекер].org
Writing library                          : x264 core 79
Encoding settings                        : cabac=1 / ref=6 / deblock=1:0:0 / analyse=0x3:0x113 / me=umh / subme=9 / psy=1 / psy_rd=1.0:0.0 / mixed_ref=1 / me_range=32 / chroma_me=1 / trellis=2 / 8x8dct=1 / cqm=0 / deadzone=21,11 / chroma_qp_offset=-2 / threads=1 / nr=0 / decimate=1 / mbaff=0 / constrained_intra=0 / bframes=5 / b_pyramid=0 / b_adapt=2 / b_bias=0 / direct=1 / wpredb=1 / wpredp=2 / keyint=250 / keyint_min=25 / scenecut=40 / rc_lookahead=50 / rc=2pass / mbtree=1 / bitrate=2335 / ratetol=1.0 / qcomp=0.60 / qpmin=10 / qpmax=51 / qpstep=4 / cplxblur=20.0 / qblur=0.5 / ip_ratio=1.40 / aq=1:1.00
Language                                 : Russian
Default                                  : Yes
Forced                                   : No
Color primaries                          : BT.601-6 525, BT.1358 525, BT.1700 NTSC, SMPTE 170M
Transfer characteristics                 : BT.709-5, BT.1361
Matrix coefficients                      : BT.601-6 525, BT.1358 525, BT.1700 NTSC, SMPTE 170M
Audio #1
ID                                       : 2
Format                                   : AC-3
Format/Info                              : Audio Coding 3
Mode extension                           : CM (complete main)
Codec ID                                 : A_AC3
Duration                                 : 1h 29mn
Bit rate mode                            : Constant
Bit rate                                 : 448 Kbps
Channel(s)                               : 6 channels
Channel positions                        : Front: L C R, Side: L R, LFE
Sampling rate                            : 48.0 KHz
Bit depth                                : 16 bits
Compression mode                         : Lossy
Stream size                              : 287 MiB (13%)
Title                                    : Профессиональный (многоголосый, закадровый)
Language                                 : Russian
Default                                  : Yes
Forced                                   : No
Audio #2
ID                                       : 3
Format                                   : AC-3
Format/Info                              : Audio Coding 3
Mode extension                           : CM (complete main)
Codec ID                                 : A_AC3
Duration                                 : 1h 29mn
Bit rate mode                            : Constant
Bit rate                                 : 256 Kbps
Channel(s)                               : 2 channels
Channel positions                        : Front: L R
Sampling rate                            : 48.0 KHz
Bit depth                                : 16 bits
Compression mode                         : Lossy
Stream size                              : 164 MiB (7%)
Title                                    : Профессиональный (полное дублирование)
Language                                 : Russian
Default                                  : No
Forced                                   : No
Audio #3
ID                                       : 4
Format                                   : AC-3
Format/Info                              : Audio Coding 3
Mode extension                           : CM (complete main)
Codec ID                                 : A_AC3
Duration                                 : 1h 29mn
Bit rate mode                            : Constant
Bit rate                                 : 448 Kbps
Channel(s)                               : 6 channels
Channel positions                        : Front: L C R, Side: L R, LFE
Sampling rate                            : 48.0 KHz
Bit depth                                : 16 bits
Compression mode                         : Lossy
Stream size                              : 287 MiB (13%)
Title                                    : Оригинальный
Language                                 : French
Default                                  : No
Forced                                   : No
Text
ID                                       : 5
Format                                   : UTF-8
Codec ID                                 : S_TEXT/UTF8
Codec ID/Info                            : UTF-8 Plain Text
Title                                    : Русские
Language                                 : Russian
Default                                  : Yes
Forced                                   : No
Menu
00:00:00.000                             : :Chapter 1
00:03:32.760                             : :Chapter 2
00:07:11.160                             : :Chapter 3
00:16:12.600                             : :Chapter 4
00:22:08.280                             : :Chapter 5
00:28:47.640                             : :Chapter 6
00:34:26.520                             : :Chapter 7
00:37:56.280                             : :Chapter 8
00:46:37.080                             : :Chapter 9
00:50:35.640                             : :Chapter 10
00:56:50.520                             : :Chapter 11
01:05:51.480                             : :Chapter 12
01:09:13.560                             : :Chapter 13
01:14:33.720                             : :Chapter 14
01:20:39.960                             : :Chapter 15
01:24:56.280                             : :Chapter 16
-Cкриншоты из фильма:
       
       
-Приятного просмотра
и не забываем говорить СПАСИБО...
-

_________________


Последний раз редактировалось: Nugeiro (2012-04-06 17:58), всего редактировалось 1 раз
Вне форума [Профиль] [ЛС]

sergraaf

Стаж: 4 года 9 месяцев

Сообщений: 6

Откуда: Riga

Торрент-статистика

Пост 06-Апр-2012 19:44 (спустя 2 часа 5 минут)

[Цитировать]

Старенькaя добрая веселая комедия,хороший фильм.
Вне форума [Профиль] [ЛС]
Похожие темы
Форум Тема Автор Торрент Отв. Посл. сообщение
./templates/default/images/folder_dl.gif Японское порно без цензуры Продавщица секс игрушек [1090] [uncen] [2016 г., 360p] Fanatik
1 | 0

0 | 530

29

2016-03-10 19:59
Fanatik Последнее
Показать сообщения:    
Ответить на тему

Текущее время: Сегодня 22:51

Часовой пояс: GMT + 3



Вы не можете начинать темы
Вы не можете отвечать на сообщения
Вы не можете редактировать свои сообщения
Вы не можете удалять свои сообщения
Вы не можете голосовать в опросах
Вы не можете прикреплять файлы к сообщениям
Вы не можете скачивать файлы