Сегодня идет свободное скачивание без начисления Download

Абонемент / Purely Belter [Марк Херман] (Комедия, Драма) (2000) DVDRip

Ответить на тему
 
Автор
Сообщение

Nugeiro ®

Пол:

Стаж: 5 лет 8 месяцев

Сообщений: 2242

Откуда: Украина, Шостка

Торрент-статистика

Пост 09-Апр-2012 07:52

[Цитировать]

Абонемент / Purely Belter (2000) DVDRip- Русское название: Абонемент
Оригинальное название: Purely Belter
Производство: Великобритания, FilmFour
Год выпуска: 2000
Жанр: Комедия, Драма
Описание фильма:
Джерри и Сьюэлл вечно сидят на мели. Джерри еще не окончил школу, а Сьюэлл пока что не нашел работу. Их самая заветная мечта — раздобыть два сезонных абонемента на матчи своей любимой футбольной команды «Ньюкасл Юнайтед». К несчастью, абонементы стоят тысячу фунтов — сумму, до которой им не хватает ровно трех нулей.Несмотря на то, что отсутствие денег — лишь одна из их многочисленных проблем, друзья не сдаются и готовы пойти на все, чтобы добиться желанной цели. Пока они обдумывают различные хитроумные схемы получения денег, очередное мошенничество приводит их прямо в тюрьму…
Режиссер: Марк Херман
Актеры: Крис Битти, Грег МакЛэйн, Чарли Хардвик, Рой Хадд, Тим Хили, Кевин Уотли, Джоди Болдуин, Керри Энн Кристиансен, Трэйси Уитуэлл
Продолжительность: 01:34:49
Перевод: Профессиональный многоголосый

Видеокодек: DivX 5
Битрейт видео: ~1607 Кбит/с
Размер кадра: 720x400
Качество видео: DVDRip
Аудиокодек: AC3 5.1
Битрейт аудио: 448 Кбит/с

MediaInfo:

Общее
Полное имя : C:\Justlan\Абонемент\Abonement.avi
Формат : AVI
Формат/Информация : Audio Video Interleave
Размер файла : 1,37 Гбайт
Продолжительность : 1 ч. 34 м.
Общий поток : 2062 Кбит/сек
Программа кодирования : VirtualDubMod 1.5.4.1 (build 2178/release)
Библиотека кодирования : VirtualDubMod build 2178/release
Видео
Идентификатор : 0
Формат : MPEG-4 Visual
Параметр BVOP формата : 1
Параметр QPel формата : Нет
Параметр GMC формата : Без точки перехода
Параметр матрицы формата : Default (H.263)
Режим смешивания : Сжатый битовый поток
Идентификатор кодека : DX50
Идентификатор кодека/Подсказка : DivX 5
Продолжительность : 1 ч. 34 м.
Битрейт : 1607 Кбит/сек
Ширина : 720 пикселей
Высота : 400 пикселей
Соотношение сторон : 16:9
Частота кадров : 25,000 кадров/сек
Цветовое пространство : YUV
Субдискретизация насыщенности : 4:2:0
Битовая глубина : 8 бит
Тип развёртки : Прогрессивная
Метод сжатия : С потерями
Бит/(Пиксели*Кадры) : 0.223
Размер потока : 1,06 Гбайт (78%)
Библиотека кодирования : DivX 6.6.1.4
Аудио
Идентификатор : 1
Формат : AC-3
Формат/Информация : Audio Coding 3
Расширение режима : CM (complete main)
Идентификатор кодека : 2000
Продолжительность : 1 ч. 34 м.
Вид битрейта : Постоянный
Битрейт : 448 Кбит/сек
Каналы : 6 каналов
Расположение каналов : Front: L C R, Side: L R, LFE
Частота : 48,0 КГц
Битовая глубина : 16 бит
Метод сжатия : С потерями
Размер потока : 304 Мбайт (22%)
Выравнивание : Разделение по промежуткам
Продолжительность промежутка : 96 мс. (2,40 видеокадра)
Время предзагрузки промежутка : 96 мс.
Язык : Russian
Скриншоты:          

_________________
Вне форума [Профиль] [ЛС]
Показать сообщения:    
Ответить на тему

Текущее время: Сегодня 09:47

Часовой пояс: GMT + 3



Вы не можете начинать темы
Вы не можете отвечать на сообщения
Вы не можете редактировать свои сообщения
Вы не можете удалять свои сообщения
Вы не можете голосовать в опросах
Вы не можете прикреплять файлы к сообщениям
Вы не можете скачивать файлы