Today is a free download without charge Download

Lionel Hampton - Satin Doll (2002) [FLAC|Lossless]<Jazz, Mainstream Jazz, Swing>

Reply to topic
 
Author
Message

sashau ®

Gender:

Longevity: 8 years

Posts: 3497

Торрент-статистика

Post 21-Apr-2015 18:11

[Quote]

Lionel Hampton - Satin Doll - Год: 2002
Год записи: 1977
Жанр: Jazz, Mainstream Jazz, Swing
Продолжительность: 00:50:55
Кодек: FLAC (tracks+.cue)
Битрейт: Lossless
Источник (релизер): Собственный рип
Издатель (лейбл): Past Perfect
Номер по каталогу: 220322-203
Страна-производитель диска: Germany
Наличие сканов в содержимом раздачи: да
Треклист:
01. Mr. PC [05:29]
02. I Wish You Love [03:29]
03. It Don't Mean A Thing If It Ain't Got That Swing [06:02]
04. Memories Of You [06:37]
05. Old Man River [08:47]
06. How High the Moon [06:22]
07. Satin Doll [05:18]
08. Sleepy Time Down South [04:41]
09. Ain't Misbehavin' [04:14]

Отчёт ЕАС&#58;

Код:
Exact Audio Copy V1.0 beta 3 from 29. August 2011
EAC extraction logfile from 21. April 2015, 13:29
Lionel Hampton / Satin Doll
Used drive  : ATAPI   iHAS124   D   Adapter: 1  ID: 0
Read mode               : Secure
Utilize accurate stream : Yes
Defeat audio cache      : Yes
Make use of C2 pointers : No
Read offset correction                      : 6
Overread into Lead-In and Lead-Out          : No
Fill up missing offset samples with silence : Yes
Delete leading and trailing silent blocks   : No
Null samples used in CRC calculations       : Yes
Used interface                              : Native Win32 interface for Win NT & 2000
Gap handling                                : Appended to previous track
Used output format              : User Defined Encoder
Selected bitrate                : 128 kBit/s
Quality                         : High
Add ID3 tag                     : No
Command line compressor         : C:\Program Files (x86)\Exact Audio Copy\Flac\flac.exe
Additional command line options : -V -8 -T "Genre=%genre%" -T "Artist=%artist%" -T "Title=%title%" -T "Album=%albumtitle%" -T "Date=%year%" -T "Tracknumber=%tracknr%" -T "Comment=%comment%" %source%
TOC of the extracted CD
     Track |   Start  |  Length  | Start sector | End sector
    ---------------------------------------------------------
        1  |  0:00.00 |  5:28.44 |         0    |    24643
        2  |  5:28.44 |  3:28.34 |     24644    |    40277
        3  |  8:57.03 |  6:01.70 |     40278    |    67422
        4  | 14:58.73 |  6:36.44 |     67423    |    97166
        5  | 21:35.42 |  8:46.16 |     97167    |   136632
        6  | 30:21.58 |  6:21.62 |    136633    |   165269
        7  | 36:43.45 |  5:17.09 |    165270    |   189053
        8  | 42:00.54 |  4:40.16 |    189054    |   210069
        9  | 46:40.70 |  4:13.30 |    210070    |   229074
Track  1
     Filename F:\Lionel Hampton - Satin Doll (2002)\01. Mr. PC.wav
     Pre-gap length  0:00:02.00
     Peak level 84.1 %
     Extraction speed 5.5 X
     Track quality 100.0 %
     Test CRC A079DF53
     Copy CRC A079DF53
     Track not present in AccurateRip database
     Copy OK
Track  2
     Filename F:\Lionel Hampton - Satin Doll (2002)\02. I Wish You Love.wav
     Pre-gap length  0:00:02.00
     Peak level 66.3 %
     Extraction speed 5.0 X
     Track quality 99.9 %
     Test CRC CA89FD0C
     Copy CRC CA89FD0C
     Track not present in AccurateRip database
     Copy OK
Track  3
     Filename F:\Lionel Hampton - Satin Doll (2002)\03. It Don't Mean A Thing If It Ain't Got That Swing.wav
     Pre-gap length  0:00:02.00
     Peak level 88.1 %
     Extraction speed 6.8 X
     Track quality 100.0 %
     Test CRC 8F0A15A0
     Copy CRC 8F0A15A0
     Track not present in AccurateRip database
     Copy OK
Track  4
     Filename F:\Lionel Hampton - Satin Doll (2002)\04. Memories Of You.wav
     Pre-gap length  0:00:02.00
     Peak level 85.1 %
     Extraction speed 7.6 X
     Track quality 100.0 %
     Test CRC 26321E77
     Copy CRC 26321E77
     Track not present in AccurateRip database
     Copy OK
Track  5
     Filename F:\Lionel Hampton - Satin Doll (2002)\05. Old Man River.wav
     Pre-gap length  0:00:02.00
     Peak level 78.5 %
     Extraction speed 8.1 X
     Track quality 99.9 %
     Test CRC D44C971B
     Copy CRC D44C971B
     Track not present in AccurateRip database
     Copy OK
Track  6
     Filename F:\Lionel Hampton - Satin Doll (2002)\06. How High the Moon.wav
     Pre-gap length  0:00:02.00
     Peak level 86.7 %
     Extraction speed 9.0 X
     Track quality 100.0 %
     Test CRC 9757AA85
     Copy CRC 9757AA85
     Track not present in AccurateRip database
     Copy OK
Track  7
     Filename F:\Lionel Hampton - Satin Doll (2002)\07. Satin Doll.wav
     Pre-gap length  0:00:02.00
     Peak level 100.0 %
     Extraction speed 9.4 X
     Track quality 100.0 %
     Test CRC 5923419E
     Copy CRC 5923419E
     Track not present in AccurateRip database
     Copy OK
Track  8
     Filename F:\Lionel Hampton - Satin Doll (2002)\08. Sleepy Time Down South.wav
     Pre-gap length  0:00:02.00
     Peak level 67.9 %
     Extraction speed 8.6 X
     Track quality 99.9 %
     Test CRC 6AA7A2BE
     Copy CRC 6AA7A2BE
     Track not present in AccurateRip database
     Copy OK
Track  9
     Filename F:\Lionel Hampton - Satin Doll (2002)\09. Ain't Misbehavin'.wav
     Pre-gap length  0:00:02.00
     Peak level 86.8 %
     Extraction speed 9.8 X
     Track quality 100.0 %
     Test CRC 1E77F9A1
     Copy CRC 1E77F9A1
     Track not present in AccurateRip database
     Copy OK
None of the tracks are present in the AccurateRip database
No errors occurred
End of status report
==== Log checksum 1CF602FF054E2FB5CE0F8BFC4A146FDDF240A02F6B2FF85C588E3FEE33DE3CC3 ====

Отчёт auCDtect Task manager&#58;

Код:
-----------------------
DON'T MODIFY THIS FILE
-----------------------
PERFORMER: auCDtect Task Manager, ver. 1.6.0 RC1 build 1.6.0.1
Copyright (c) 2008-2010 y-soft. All rights reserved
http://y-soft.org
ANALYZER: auCDtect: CD records authenticity detector, version 0.8.2
Copyright (c) 2004 Oleg Berngardt. All rights reserved.
Copyright (c) 2004 Alexander Djourik. All rights reserved.
FILE: 09. Ain't Misbehavin'.flac
  Size: 20123508 Hash: 6DDC380BFFB3B68D89C9D10E36D08647 Accuracy: -m0
  Conclusion: CDDA 100%
  Signature: 8ED11411DED603C8B97D2B77A936DC5EDD26F1EE
FILE: 08. Sleepy Time Down South.flac
  Size: 21305039 Hash: A533529D7617B96405E79ACEBA6D7443 Accuracy: -m0
  Conclusion: CDDA 100%
  Signature: 481FB07E7EAA2BB45B4A2900DD19EB7B29EB7500
FILE: 07. Satin Doll.flac
  Size: 30087804 Hash: B9BDA4B272EF3D6BD65B6D3C7884BFCC Accuracy: -m0
  Conclusion: CDDA 100%
  Signature: 22C935F23A7FB8D40AEEBCFFAF52DA84B37E666C
FILE: 06. How High the Moon.flac
  Size: 38453937 Hash: E6DA97A5561EC3490B9907E260DB5394 Accuracy: -m0
  Conclusion: CDDA 100%
  Signature: 3DC429127DE8C67656216193C843A9A4E4D4C2D1
FILE: 05. Old Man River.flac
  Size: 45991358 Hash: FAE8702286DFBF7E9775307424DC6C72 Accuracy: -m0
  Conclusion: CDDA 100%
  Signature: 41AB1AD8854C3E99C7447463B9EF780491ACD65B
FILE: 04. Memories Of You.flac
  Size: 33811670 Hash: 1798268170AAC0CCFF8B6EDFF9B6AA0C Accuracy: -m0
  Conclusion: CDDA 100%
  Signature: 49B001C48F79B04EA270C2C86CAEECA0E4CB7188
FILE: 03. It Don't Mean A Thing If It Ain't Got That Swing.flac
  Size: 35647452 Hash: 4F2B4FA50E4259778FE88A7F7C7F4ECA Accuracy: -m0
  Conclusion: CDDA 99%
  Signature: 77F4B28D113373C3CDE144AD429849AB13BAB440
FILE: 02. I Wish You Love.flac
  Size: 17772023 Hash: D588EB3002E87DB3D9751D5928025FFF Accuracy: -m0
  Conclusion: CDDA 100%
  Signature: B329AB23578E34E60D0D029C89EA2AE5C3BF92F2
FILE: 01. Mr. PC.flac
  Size: 32135118 Hash: 9DF81935B9D2A3309D600693319DD0CC Accuracy: -m0
  Conclusion: CDDA 100%
  Signature: 6EF608F0A7620325A2AEE1E91ADA488F95EFB2FA

Содержание индексной карты (.CUE&#41;

Код:
REM GENRE Jazz
REM DATE 2002
REM DISCID 630BEE09
REM COMMENT "ExactAudioCopy v1.0b3"
PERFORMER "Lionel Hampton"
TITLE "Satin Doll"
FILE "01. Mr. PC.wav" WAVE
  TRACK 01 AUDIO
    TITLE "Mr. PC"
    PERFORMER "Lionel Hampton"
    INDEX 01 00:00:00
  TRACK 02 AUDIO
    TITLE "I Wish You Love"
    PERFORMER "Lionel Hampton"
    INDEX 00 05:26:44
FILE "02. I Wish You Love.wav" WAVE
    INDEX 01 00:00:00
  TRACK 03 AUDIO
    TITLE "It Don't Mean A Thing If It Ain't Got That Swing"
    PERFORMER "Lionel Hampton"
    INDEX 00 03:26:34
FILE "03. It Don't Mean A Thing If It Ain't Got That Swing.wav" WAVE
    INDEX 01 00:00:00
  TRACK 04 AUDIO
    TITLE "Memories Of You"
    PERFORMER "Lionel Hampton"
    INDEX 00 05:59:70
FILE "04. Memories Of You.wav" WAVE
    INDEX 01 00:00:00
  TRACK 05 AUDIO
    TITLE "Old Man River"
    PERFORMER "Lionel Hampton"
    INDEX 00 06:34:44
FILE "05. Old Man River.wav" WAVE
    INDEX 01 00:00:00
  TRACK 06 AUDIO
    TITLE "How High the Moon"
    PERFORMER "Lionel Hampton"
    INDEX 00 08:44:16
FILE "06. How High the Moon.wav" WAVE
    INDEX 01 00:00:00
  TRACK 07 AUDIO
    TITLE "Satin Doll"
    PERFORMER "Lionel Hampton"
    INDEX 00 06:19:62
FILE "07. Satin Doll.wav" WAVE
    INDEX 01 00:00:00
  TRACK 08 AUDIO
    TITLE "Sleepy Time Down South"
    PERFORMER "Lionel Hampton"
    INDEX 00 05:15:09
FILE "08. Sleepy Time Down South.wav" WAVE
    INDEX 01 00:00:00
  TRACK 09 AUDIO
    TITLE "Ain't Misbehavin'"
    PERFORMER "Lionel Hampton"
    INDEX 00 04:38:16
FILE "09. Ain't Misbehavin'.wav" WAVE
    INDEX 01 00:00:00

Состав

Lionel Hampton - vibes
Candido - congas
Unknown - trumpet, trombone
Al Caiola - guitar
George Mraz - bass
Richie Pratt - drums
Other forum [Profile] [PM]
Display posts from previous:    
Reply to topic

The time now is: Today 10:04

All times are GMT + 3 Hours



You cannot post new topics in this forum
You cannot reply to topics in this forum
You cannot edit your posts in this forum
You cannot delete your posts in this forum
You cannot vote in polls in this forum
You cannot attach files in this forum
You cannot download files in this forum