Today is a free download without charge Download

David Friedman - Winter Love, April Joy (2015) [FLAC|Lossless]<Jazz, Post Bop, Modern Creative>

Reply to topic
 
Author
Message

sashau ®

Gender:

Longevity: 8 years

Posts: 3497

Торрент-статистика

Post 27-Apr-2015 14:55

[Quote]

David Friedman - Winter Love, April Joy - Год: 2015
Год записи: 1975
Жанр: Jazz, Post Bop, Modern Creative
Продолжительность: 00:45:08
Кодек: FLAC (tracks+.cue)
Битрейт: Lossless
Источник (релизер): ruskaval
Издатель (лейбл): East Wind Music / Universal
Номер по каталогу: UCCJ-9149
Страна-производитель диска: Japan
Наличие сканов в содержимом раздачи: да
Треклист:
01. Nyack [04:52]
02. Truce [07:00]
03. Brite Piece [03:53]
04. Exercise #5 - April Joy [06:30]
05. Untitled [05:19]
06. Island [06:08]
07. Saraband [06:16]
08. I've Touched Your Soul [05:14]

Отчёт ЕАС&#58;

Код:
Exact Audio Copy V1.0 beta 4 from 7. December 2014
EAC extraction logfile from 24. April 2015, 15:45
David Friedman / Winter Love, April Joy
Used drive  : TSSTcorpCDDVDW SE-208DB   Adapter: 1  ID: 1
Read mode               : Secure
Utilize accurate stream : Yes
Defeat audio cache      : Yes
Make use of C2 pointers : No
Read offset correction                      : 6
Overread into Lead-In and Lead-Out          : No
Fill up missing offset samples with silence : Yes
Delete leading and trailing silent blocks   : No
Null samples used in CRC calculations       : Yes
Used interface                              : Native Win32 interface for Win NT & 2000
Gap handling                                : Appended to previous track
Used output format              : User Defined Encoder
Selected bitrate                : 1024 kBit/s
Quality                         : High
Add ID3 tag                     : No
Command line compressor         : C:\Program Files (x86)\FLAC Frontend\tools\flac.exe
Additional command line options : -8 -V -T "ARTIST=%artist%" -T "TITLE=%title%" -T "ALBUM=%albumtitle%" -T "DATE=%year%" -T "TRACKNUMBER=%tracknr%" -T "TOTALTRACKS=%numtracks%" -T "GENRE=%genre%" -T "ALBUMARTIST=%albumartist%" -T "ALBUM ARTIST=%albumartist%" -T "COMMENT=EAC Secure Mode, Test & Copy, AccurateRip, FLAC -8" %source%
TOC of the extracted CD
     Track |   Start  |  Length  | Start sector | End sector
    ---------------------------------------------------------
        1  |  0:00.00 |  4:51.18 |         0    |    21842
        2  |  4:51.18 |  6:59.07 |     21843    |    53274
        3  | 11:50.25 |  3:52.05 |     53275    |    70679
        4  | 15:42.30 |  6:29.25 |     70680    |    99879
        5  | 22:11.55 |  5:18.58 |     99880    |   123787
        6  | 27:30.38 |  6:07.55 |    123788    |   151367
        7  | 33:38.18 |  6:15.15 |    151368    |   179507
        8  | 39:53.33 |  5:13.60 |    179508    |   203042
Track  1
     Filename D:\_EAC\David Friedman - Winter Love, April Joy (1975) {2015 DSD Japan East Wind Masters Collection 1000}\01 - Nyack.wav
     Pre-gap length  0:00:02.00
     Peak level 55.7 %
     Extraction speed 2.7 X
     Track quality 100.0 %
     Test CRC 3922836E
     Copy CRC 3922836E
     Track not present in AccurateRip database
     Copy OK
Track  2
     Filename D:\_EAC\David Friedman - Winter Love, April Joy (1975) {2015 DSD Japan East Wind Masters Collection 1000}\02 - Truce.wav
     Pre-gap length  0:00:04.28
     Peak level 70.6 %
     Extraction speed 3.2 X
     Track quality 100.0 %
     Test CRC B57ABC41
     Copy CRC B57ABC41
     Track not present in AccurateRip database
     Copy OK
Track  3
     Filename D:\_EAC\David Friedman - Winter Love, April Joy (1975) {2015 DSD Japan East Wind Masters Collection 1000}\03 - Brite Piece.wav
     Pre-gap length  0:00:06.50
     Peak level 57.5 %
     Extraction speed 2.7 X
     Track quality 99.9 %
     Test CRC D5AAEC75
     Copy CRC D5AAEC75
     Track not present in AccurateRip database
     Copy OK
Track  4
     Filename D:\_EAC\David Friedman - Winter Love, April Joy (1975) {2015 DSD Japan East Wind Masters Collection 1000}\04 - Exercise #5 - April Joy.wav
     Pre-gap length  0:00:04.00
     Peak level 56.9 %
     Extraction speed 3.8 X
     Track quality 100.0 %
     Test CRC BF08F262
     Copy CRC BF08F262
     Track not present in AccurateRip database
     Copy OK
Track  5
     Filename D:\_EAC\David Friedman - Winter Love, April Joy (1975) {2015 DSD Japan East Wind Masters Collection 1000}\05 - Untitled.wav
     Pre-gap length  0:00:04.03
     Peak level 65.4 %
     Extraction speed 4.1 X
     Track quality 100.0 %
     Test CRC 5FFB7954
     Copy CRC 5FFB7954
     Track not present in AccurateRip database
     Copy OK
Track  6
     Filename D:\_EAC\David Friedman - Winter Love, April Joy (1975) {2015 DSD Japan East Wind Masters Collection 1000}\06 - Island.wav
     Pre-gap length  0:00:06.30
     Peak level 44.4 %
     Extraction speed 4.4 X
     Track quality 100.0 %
     Test CRC 2207E602
     Copy CRC 2207E602
     Track not present in AccurateRip database
     Copy OK
Track  7
     Filename D:\_EAC\David Friedman - Winter Love, April Joy (1975) {2015 DSD Japan East Wind Masters Collection 1000}\07 - Saraband.wav
     Pre-gap length  0:00:02.48
     Peak level 45.2 %
     Extraction speed 4.7 X
     Track quality 100.0 %
     Test CRC E2F748A7
     Copy CRC E2F748A7
     Track not present in AccurateRip database
     Copy OK
Track  8
     Filename D:\_EAC\David Friedman - Winter Love, April Joy (1975) {2015 DSD Japan East Wind Masters Collection 1000}\08 - I've Touched Your Soul.wav
     Pre-gap length  0:00:05.55
     Peak level 52.4 %
     Extraction speed 4.8 X
     Track quality 100.0 %
     Test CRC 0FB88776
     Copy CRC 0FB88776
     Track not present in AccurateRip database
     Copy OK
None of the tracks are present in the AccurateRip database
No errors occurred
End of status report
==== Log checksum FCEE9F1A3505BB96C0412426EF87D8149E118507EFBA4652FEAF16BD999CEF4A ====

Отчёт auCDtect Task manager&#58;

Код:
-----------------------
DON'T MODIFY THIS FILE
-----------------------
PERFORMER: auCDtect Task Manager, ver. 1.6.0 RC1 build 1.6.0.1
Copyright (c) 2008-2010 y-soft. All rights reserved
http://y-soft.org
ANALYZER: auCDtect: CD records authenticity detector, version 0.8.2
Copyright (c) 2004 Oleg Berngardt. All rights reserved.
Copyright (c) 2004 Alexander Djourik. All rights reserved.
FILE: 08 - I've Touched Your Soul.flac
  Size: 28985963 Hash: 2E5DC7B85470D5EDF046BCDEF059C3AE Accuracy: -m0
  Conclusion: CDDA 100%
  Signature: 9EECFA1FC6D8E0495D7A17146636B19E5D388DCD
FILE: 07 - Saraband.flac
  Size: 33505764 Hash: A986AF37C51A2CD48E032FC75A0F52E9 Accuracy: -m0
  Conclusion: CDDA 100%
  Signature: DAD1C2E5AC031361ED97F6EC4BB3E8A0D63B0043
FILE: 06 - Island.flac
  Size: 31196472 Hash: 8BB8BD608A35AB861DF3AC072D316B71 Accuracy: -m0
  Conclusion: CDDA 99%
  Signature: AD4D3C0F62F5C3B480340ACC86297816D3591550
FILE: 05 - Untitled.flac
  Size: 26514864 Hash: 5A0EDBA07FDDF14C6919CED53FF282FA Accuracy: -m0
  Conclusion: CDDA 100%
  Signature: 7B8EFB64AD5652355241CFB24BDDEDDF9802F23F
FILE: 04 - Exercise #5 - April Joy.flac
  Size: 32151283 Hash: B119059C31932F3C8619C097C8DD439D Accuracy: -m0
  Conclusion: CDDA 100%
  Signature: 03FD00349B0AC916AF3FAF04CDF4DFA7AE5B5802
FILE: 03 - Brite Piece.flac
  Size: 19713353 Hash: 212D4995E3D0A1411E8CC8F35F86F572 Accuracy: -m0
  Conclusion: CDDA 100%
  Signature: 41D81754CF5D0938C5384B7BE6E20F5B0F764FDF
FILE: 02 - Truce.flac
  Size: 32534304 Hash: B6D54B455238942FEDA5A819C4C74C88 Accuracy: -m0
  Conclusion: CDDA 100%
  Signature: 113E71416C17AFC131FF53DEA355688C5D7E2304
FILE: 01 - Nyack.flac
  Size: 22642901 Hash: D3969ECD71BB1DC8D55B4F5CB58A271F Accuracy: -m0
  Conclusion: CDDA 100%
  Signature: 5270CCBCF49CF42C208C6E983F2FF57488D62471

Содержание индексной карты (.CUE&#41;

Код:
REM GENRE Jazz
REM DATE 1975
REM DISCID 5A0A9308
REM COMMENT "ExactAudioCopy v1.0b4"
PERFORMER "David Friedman"
TITLE "Winter Love, April Joy"
FILE "01 - Nyack.wav" WAVE
  TRACK 01 AUDIO
    TITLE "Nyack"
    PERFORMER "David Friedman"
    INDEX 01 00:00:00
  TRACK 02 AUDIO
    TITLE "Truce"
    PERFORMER "David Friedman"
    INDEX 00 04:46:65
FILE "02 - Truce.wav" WAVE
    INDEX 01 00:00:00
  TRACK 03 AUDIO
    TITLE "Brite Piece"
    PERFORMER "David Friedman"
    INDEX 00 06:52:32
FILE "03 - Brite Piece.wav" WAVE
    INDEX 01 00:00:00
  TRACK 04 AUDIO
    TITLE "Exercise #5 - April Joy"
    PERFORMER "David Friedman"
    INDEX 00 03:48:05
FILE "04 - Exercise #5 - April Joy.wav" WAVE
    INDEX 01 00:00:00
  TRACK 05 AUDIO
    TITLE "Untitled"
    PERFORMER "David Friedman"
    INDEX 00 06:25:22
FILE "05 - Untitled.wav" WAVE
    INDEX 01 00:00:00
  TRACK 06 AUDIO
    TITLE "Island"
    PERFORMER "David Friedman"
    INDEX 00 05:12:28
FILE "06 - Island.wav" WAVE
    INDEX 01 00:00:00
  TRACK 07 AUDIO
    TITLE "Saraband"
    PERFORMER "David Friedman"
    INDEX 00 06:05:07
FILE "07 - Saraband.wav" WAVE
    INDEX 01 00:00:00
  TRACK 08 AUDIO
    TITLE "I've Touched Your Soul"
    PERFORMER "David Friedman"
    INDEX 00 06:09:35
FILE "08 - I've Touched Your Soul.wav" WAVE
    INDEX 01 00:00:00

Состав

David Friedman - vibes, marimba
David Samuels - vibes, marimba, bass marimba
Hubert Laws - flute, piccolo
Harvie Swartz - bass
Other forum [Profile] [PM]
Display posts from previous:    
Reply to topic

The time now is: Today 11:08

All times are GMT + 3 Hours



You cannot post new topics in this forum
You cannot reply to topics in this forum
You cannot edit your posts in this forum
You cannot delete your posts in this forum
You cannot vote in polls in this forum
You cannot attach files in this forum
You cannot download files in this forum