Сегодня идет свободное скачивание без начисления Download

Запах женщины / Scent Of A Woman (Мартин Брест / Martin Brest) [1992 г., Драма, BDRip-AVC] AVO (Гаврилов (3), Володарский) + Sub (Rus)

Ответить на тему
 
Автор
Сообщение

Clavik ®

Пол:

Стаж: 3 года 2 месяца

Сообщений: 2498

Откуда: Украина

Торрент-статистика

Пост 01-Май-2015 11:21

[Цитировать]

Запах женщины / Scent Of A Woman«Col. Frank Slade has a very special plan for the weekend. It involves travel, women, good food, fine wine, the tango, chauffeured limousines and a loaded forty-five. And he's bringing Charlie along for the ride.»- Год выпуска: 1992
Мировая премьера: 23 декабря 1992 (США)
Производство: CША
Жанр: Драма
Продолжительность: 02:36:25
Перевод: Авторский (одноголосый): Гаврилов (Voice),Гаврилов (VHS as is), Гаврилов (VHS, clear), Володарский
Субтитры: русские
Режиссер: Мартин Брест / Martin Brest
В ролях: Аль Пачино / Al Pacino, Крис О'Доннелл / Chris O'Donnell, Джеймс Реборн / James Rebhorn, Габриэлла Анвар / Gabrielle Anwar, Ричард Вентуре / Richard Venture, Брэдли Уитфорд / Bradley Whitford, Рон Элдард / Ron Eldard, Филип Сеймор Хоффман / Philip Seymour Hoffman, Рошель Оливер / Rochelle Oliver, Маргарет Эджинтон / Margaret Eginton, Том Риис Фэррелл / Tom Riis Farrell
Описание: Аль Пачино достоин высших похвал за эту роль. Он играет слепого человека, ветерана войны, переживающего жизненный кризис, подавленного, отчаянного, пьющего и агрессивного, пытающегося перед страшным поступком - самоубийством, насладиться всем лучшим, что дарует жизнь. В День Благодарения он просит молодого, бедного студента, нанятого приглядеть за ним, отвезти его в город и снимает лучший номер в дорогом отеле. Они знакомятся с юной девушкой, и сцена, когда слепой танцует с ней танго, тронет вас до глубины души. Молодой парень постепенно проникается сочувствием к слепому и привязывается к нему. По сути он предотвращает его самоубийство, а Пачино в конце выручает его в колледже, произнося речь, которая в лишний раз подчеркивает его выдающееся актерское мастерство. Одна из самых мощных мелодрам начала 90-х годов поставлена по роману Джованни Арпино "Il Buio e il Miele.

Качество видео: BDRip-AVC
Контейнер: MKV
Видео кодек: AVC/H.264
Видео: 1040x564 / 2375 kbps / 23,976 fps / 1,85:1 / High Profile 4.1
Аудио#1: 48 kHz, AC3 Dolby Digital, 3/2 (L,C,R,l,r) + LFE ch, ~448 kbps avg - Гаврилов (Voice)
Аудио#2: 48 kHz, AC3 Dolby Digital, 2/0 (L,R) ch, ~192.00 kbps avg - Гаврилов (VHS)
Аудио#3: 48 kHz, AC3 Dolby Digital, 2/0 (L,R) ch, ~192.00 kbps avg - Гаврилов (VHS, clear)
Аудио#4: 48 kHz, AC3 Dolby Digital, 2/0 (L,R) ch, ~192.00 kbps avg - Володарский

Media Info

Формат : Matroska
Версия формата : Version 4 / Version 2
Размер файла : 3,72 Гбайт
Продолжительность : 2 ч. 36 м.
Общий поток : 3402 Кбит/сек
Название фильма : Scent of a Woman.1992.BDRip-AVC.Gavrilov.Gavrilov (VHS).Volodarsky -=anton966=-
Дата кодирования : UTC 2015-05-01 05:34:01
Программа кодирования : mkvmerge v7.8.0 ('River Man') 64bit built on Mar 27 2015 16:31:37
Библиотека кодирования : libebml v1.3.1 + libmatroska v1.4.2
DURATION : 02:29:56.233000000
NUMBER_OF_FRAMES : 2025
NUMBER_OF_BYTES : 112790
_STATISTICS_WRITING_APP : mkvmerge v7.8.0 ('River Man') 64bit built on Mar 27 2015 16:31:37
_STATISTICS_WRITING_DATE_UTC : 2015-05-01 05:34:01
_STATISTICS_TAGS : BPS DURATION NUMBER_OF_FRAMES NUMBER_OF_BYTES
Видео
Идентификатор : 1
Формат : AVC
Формат/Информация : Advanced Video Codec
Профиль формата : [email protected]
Параметр CABAC формата : Да
Параметр ReFrames формата : 9 кадров
Идентификатор кодека : V_MPEG4/ISO/AVC
Продолжительность : 2 ч. 36 м.
Битрейт : 2310 Кбит/сек
Ширина : 1040 пикселей
Высота : 564 пикселя
Соотношение сторон : 1,85:1
Режим частоты кадров : Постоянный
Частота кадров : 23,976 кадра/сек
Цветовое пространство : YUV
Субдискретизация насыщенности : 4:2:0
Битовая глубина : 8 бит
Тип развёртки : Прогрессивная
Бит/(Пиксели*Кадры) : 0.164
Размер потока : 2,52 Гбайт (68%)
Заголовок : Scent of a Woman.1992.BDRip-AVC (1040x564)
Библиотека кодирования : x264 core 144 r2525 40bb568
Настройки программы : cabac=1 / ref=9 / deblock=1:-3:-3 / analyse=0x3:0x113 / me=umh / subme=11 / psy=1 / psy_rd=1.05:0.15 / mixed_ref=1 / me_range=32 / chroma_me=1 / trellis=2 / 8x8dct=1 / cqm=0 / deadzone=21,11 / fast_pskip=1 / chroma_qp_offset=-3 / threads=12 / lookahead_threads=2 / sliced_threads=0 / nr=0 / decimate=1 / interlaced=0 / bluray_compat=0 / constrained_intra=0 / bframes=8 / b_pyramid=2 / b_adapt=2 / b_bias=0 / direct=1 / weightb=1 / open_gop=0 / weightp=2 / keyint=250 / keyint_min=23 / scenecut=40 / intra_refresh=0 / rc=crf / mbtree=0 / crf=19.0 / qcomp=0.60 / qpmin=0 / qpmax=69 / qpstep=4 / ip_ratio=1.49 / pb_ratio=1.30 / aq=1:1.00
Язык : English
Default : Да
Forced : Нет
DURATION : 02:36:24.343000000
NUMBER_OF_FRAMES : 224999
NUMBER_OF_BYTES : 2786362782
_STATISTICS_WRITING_APP : mkvmerge v7.8.0 ('River Man') 64bit built on Mar 27 2015 16:31:37
_STATISTICS_WRITING_DATE_UTC : 2015-05-01 05:34:01
_STATISTICS_TAGS : BPS DURATION NUMBER_OF_FRAMES NUMBER_OF_BYTES
Аудио #1
Идентификатор : 2
Формат : AC-3
Формат/Информация : Audio Coding 3
Расширение режима : CM (complete main)
Параметр Endianness формата : Big
Идентификатор кодека : A_AC3
Продолжительность : 2 ч. 36 м.
Вид битрейта : Постоянный
Битрейт : 448 Кбит/сек
Каналы : 6 каналов
Расположение каналов : Front: L C R, Side: L R, LFE
Частота : 48,0 КГц
Битовая глубина : 16 бит
Метод сжатия : С потерями
Размер потока : 501 Мбайт (13%)
Заголовок : Gavrilov DD AC3 5.1 @ 448 kbps
Язык : Russian
Default : Да
Forced : Нет
Аудио #2
Идентификатор : 3
Формат : AC-3
Формат/Информация : Audio Coding 3
Профиль формата : Dolby Digital
Расширение режима : CM (complete main)
Параметр Endianness формата : Big
Идентификатор кодека : A_AC3
Продолжительность : 2 ч. 36 м.
Вид битрейта : Постоянный
Битрейт : 192 Кбит/сек
Каналы : 2 канала
Расположение каналов : Front: L R
Частота : 48,0 КГц
Битовая глубина : 16 бит
Метод сжатия : С потерями
Размер потока : 215 Мбайт (6%)
Заголовок : Gavrilov (VHS) DD AC3 2.0 @ 192 kbps
Язык : Russian
Default : Нет
Forced : Нет
Аудио #3
Идентификатор : 4
Формат : AC-3
Формат/Информация : Audio Coding 3
Профиль формата : Dolby Digital
Расширение режима : CM (complete main)
Параметр Endianness формата : Big
Идентификатор кодека : A_AC3
Продолжительность : 2 ч. 36 м.
Вид битрейта : Постоянный
Битрейт : 192 Кбит/сек
Каналы : 2 канала
Расположение каналов : Front: L R
Частота : 48,0 КГц
Битовая глубина : 16 бит
Метод сжатия : С потерями
Размер потока : 215 Мбайт (6%)
Заголовок : Gavrilov (VHS, clear) DD AC3 2.0 @ 192 kbps
Язык : Russian
Default : Нет
Forced : Нет
Аудио #4
Идентификатор : 5
Формат : AC-3
Формат/Информация : Audio Coding 3
Расширение режима : CM (complete main)
Параметр Endianness формата : Big
Идентификатор кодека : A_AC3
Продолжительность : 2 ч. 36 м.
Вид битрейта : Постоянный
Битрейт : 192 Кбит/сек
Каналы : 2 канала
Расположение каналов : Front: L R
Частота : 48,0 КГц
Битовая глубина : 16 бит
Метод сжатия : С потерями
Размер потока : 215 Мбайт (6%)
Заголовок : Volodarsky DD AC3 2.0 @ 192 kbps
Язык : Russian
Default : Нет
Forced : Нет
Текст
Идентификатор : 6
Формат : UTF-8
Идентификатор кодека : S_TEXT/UTF8
Идентификатор кодека/Информация : UTF-8 Plain Text
Язык : Russian
Default : Нет
Forced : Нет
Меню
00:00:00.000 : en:The Baird Preparatory School
00:06:22.924 : en:The Job Interview
00:20:06.413 : en:A Prep School Prank
00:24:24.880 : en:One Special Student
00:35:01.641 : en:I'm Giving You Pearls Here
00:39:09.138 : en:The Waldorf Astoria
00:57:42.959 : en:Thanksgiving Dinner
01:08:41.367 : en:A.45 in .25
01:19:31.015 : en:Tango Lessons
01:40:29.523 : en:The Ferrari
01:52:33.329 : en:Back Too Fast
02:12:00.620 : en:An Open Meeting
02:19:49.047 : en:The Colonel Speaks Out
02:26:15.725 : en:The Disciplinary Committee's Decision
02:30:16.674 : en:The End of a Really Hard Weekend
02:33:21.984 : en:End Titles

x264 log

avs [info]: 1040x564p 1:1 @ 2997/125 fps (cfr)
x264 [info]: using SAR=1/1
x264 [info]: using cpu capabilities: MMX2 SSE2Fast SSSE3 SSE4.2 AVX XOP FMA4 FMA3 LZCNT BMI1
x264 [info]: profile High, level 4.1
x264 [info]: frame I:1817 Avg QP:17.57 size: 78620
x264 [info]: frame P:44240 Avg QP:19.36 size: 25671
x264 [info]: frame B:178942 Avg QP:21.50 size: 8426
x264 [info]: consecutive B-frames: 1.5% 1.4% 3.8% 12.8% 22.1% 48.3% 5.0% 3.9% 1.2%
x264 [info]: mb I I16..4: 5.0% 80.1% 14.9%
x264 [info]: mb P I16..4: 0.2% 8.9% 1.9% P16..4: 33.9% 39.2% 13.0% 0.0% 0.0% skip: 2.9%
x264 [info]: mb B I16..4: 0.0% 0.8% 0.2% B16..8: 39.6% 21.1% 2.6% direct: 4.6% skip:31.0% L0:42.2% L1:43.6% BI:14.1%
x264 [info]: 8x8 transform intra:79.5% inter:59.6%
x264 [info]: coded y,uvDC,uvAC intra: 91.5% 85.2% 56.9% inter: 24.5% 18.4% 1.2%
x264 [info]: i16 v,h,dc,p: 19% 9% 16% 56%
x264 [info]: i8 v,h,dc,ddl,ddr,vr,hd,vl,hu: 15% 7% 8% 9% 13% 13% 11% 12% 12%
x264 [info]: i4 v,h,dc,ddl,ddr,vr,hd,vl,hu: 49% 5% 5% 5% 8% 9% 7% 7% 6%
x264 [info]: i8c dc,h,v,p: 34% 28% 22% 17%
x264 [info]: Weighted P-Frames: Y:8.1% UV:3.9%
x264 [info]: ref P L0: 38.7% 11.2% 20.1% 7.0% 7.2% 4.8% 5.1% 2.6% 3.0% 0.3% 0.0%
x264 [info]: ref B L0: 73.0% 11.8% 5.6% 3.3% 2.4% 2.2% 1.2% 0.5%
x264 [info]: ref B L1: 93.8% 6.2%
x264 [info]: kb/s:2375.33

Скриншоты

                     

_________________


Вне форума [Профиль] [ЛС]
Показать сообщения:    
Ответить на тему

Текущее время: Сегодня 15:06

Часовой пояс: GMT + 3



Вы не можете начинать темы
Вы не можете отвечать на сообщения
Вы не можете редактировать свои сообщения
Вы не можете удалять свои сообщения
Вы не можете голосовать в опросах
Вы не можете прикреплять файлы к сообщениям
Вы не можете скачивать файлы