Сегодня идет свободное скачивание без начисления Download

Скалолаз / Cliffhanger (Ренни Харлин / Renny Harlin) [1993 г., боевик, триллер, приключения,BDRip-AVC] [US Transfer] AVO (2xГаврилов, Живов, Горчаков, Володарский) + Sub (Rus)

Ответить на тему
 
Автор
Сообщение

Clavik ®

Пол:

Стаж: 3 года 2 месяца

Сообщений: 2498

Откуда: Украина

Торрент-статистика

Пост 09-Май-2015 10:30

[Цитировать]

Скалолаз / Cliffhanger (US Transfer)
«The height of adventure»
- Год выпуска: 1993
Производство: Италия, Франция, США
Жанр: боевик, триллер, приключения
Продолжительность: 01:52:42
Перевод: Авторский (одноголосый, закадровый) 2xГаврилов, Живов, Горчаков, Володарский
Субтитры: русские
Режиссер: Ренни Харлин / Renny Harlin
В ролях: Сильвестр Сталлоне, Джон Литгоу, Майкл Рукер, Джанин Тернер, Рекс Линн, Кэролайн Гудолл, Леон, Крэйг Фэйрбрасс, Грегори Скотт Камминс, Дэнис Форест
Описание: В горах после снежной лавины теряются 5 человек. На их поиски отправляется один из лучших альпинистов и горных проводников – Гейб Уокер. Неожиданно он понимает, что его специально заманили в горы для совершенно другого дела.
Также становится ясно, что Гейб станет нежелательным свидетелем, от которого без раздумья «избавятся». Но свою жизнь он терять так просто не собирается и объявляет безжалостную войну банде вооруженных до зубов боевиков под предводительством международного террориста Эрика Куалена...


Качество видео: BDRip-AVC / 1080p BD-Remux US BluRay
Контейнер: MKV
Видео кодек: AVC / H.264
Видео: 1064x440 / 2527 kbps / 23,976 fps / 2,40:1 / High Profile 4.1
Аудио#1: 48 kHz, AC3 Dolby Digital, 3/2 (L,C,R,l,r) + LFE ch, ~448 kbps avg - Гаврилов (ранний)
Аудио#2: 48 kHz, AC3 Dolby Digital, 3/2 (L,C,R,l,r) + LFE ch, ~448 kbps avg - Гаврилов (поздний)
Аудио#3: 48 kHz, AC3 Dolby Digital, 3/2 (L,C,R,l,r) + LFE ch, ~448 kbps avg - Живов
Аудио#4: 48 kHz, AC3 Dolby Digital, 3/2 (L,C,R,l,r) + LFE ch, ~448 kbps avg - Горчаков
Аудио#5: 48 kHz, AC3 Dolby Digital, 2/0 (L,R) ch, ~192.00 kbps avg - Володарский
Формат субтитров: prerendered (IDX+SUB)

Доп. информация

Новый перевод Гаврилова осуществлен в октябре 2013 года усилиями членов клуба е180.
За работу с дорогами спасибо Прагматик :
1) Исправлена тональность голоса Гаврилова в в "новой" версии перевода,
выровнена данамика самого голоса, уложен с правильным соотношением громкости
голос-оригинал по новой.
2) Из чистого голоса убрана низкочастатная паразитная реверберация, голос это не
спасло, но слушать его стало легче. Подкорректирована громкость в насыщенных эпизодах.
3) Из голоса Горчакова тоже убраны паразитные низы, выровнена динамика - корректно
уложен в отношеннии громкости голос/оригинал.
4) В дороге Живова прежде всего без перегрузки улучшено звучание перевода в громких
эпизодах. Сильнее сдвинут относительно начала английских фраз по всей длине дороги.

Награды

Оскар, 1994 год
Номинации (3):
Лучший звук
Лучший монтаж звука
Лучшие визуальные эффекты
Премия канала «MTV», 1994 год
Номинации (1):
Лучшая экшн-сцена
Золотая малина, 1994 год
Номинации (4):
Худший фильм
Худшая мужская роль второго плана (Джон Литгоу)
Худшая женская роль второго плана (Джанин Тернер)
Худший сценарий

Media Info

Формат : Matroska
Версия формата : Version 4 / Version 2
Размер файла : 3,56 Гбайт
Продолжительность : 1 ч. 52 м.
Общий поток : 4520 Кбит/сек
Название фильма : Cliffhanger.1993.BDRip-AVC.2xGavrilov.Zhivov.Gorchakov.Volodarskiy -=anton966=-
Дата кодирования : UTC 2015-05-08 19:40:43
Программа кодирования : mkvmerge v7.8.0 ('River Man') 64bit built on Mar 27 2015 16:31:37
Библиотека кодирования : libebml v1.3.1 + libmatroska v1.4.2
DURATION : 01:42:40.202000000
NUMBER_OF_FRAMES : 2130
NUMBER_OF_BYTES : 4142972
_STATISTICS_WRITING_APP : mkvmerge v7.8.0 ('River Man') 64bit built on Mar 27 2015 16:31:37
_STATISTICS_WRITING_DATE_UTC : 2015-05-08 19:40:43
_STATISTICS_TAGS : BPS DURATION NUMBER_OF_FRAMES NUMBER_OF_BYTES
Видео
Идентификатор : 1
Формат : AVC
Формат/Информация : Advanced Video Codec
Профиль формата : [email protected]
Параметр CABAC формата : Да
Параметр ReFrames формата : 8 кадров
Идентификатор кодека : V_MPEG4/ISO/AVC
Продолжительность : 1 ч. 52 м.
Битрейт : 2446 Кбит/сек
Ширина : 1064 пикселя
Высота : 440 пикселей
Соотношение сторон : 2,40:1
Режим частоты кадров : Постоянный
Частота кадров : 23,976 кадра/сек
Цветовое пространство : YUV
Субдискретизация насыщенности : 4:2:0
Битовая глубина : 8 бит
Тип развёртки : Прогрессивная
Бит/(Пиксели*Кадры) : 0.218
Размер потока : 1,93 Гбайт (54%)
Заголовок : Cliffhanger.1993.BDRip-AVC
Библиотека кодирования : x264 core 146 r2538kMod 121396c
Настройки программы : cabac=1 / ref=8 / deblock=1:-2:-2 / analyse=0x3:0x113 / me=umh / subme=11 / psy=1 / fade_compensate=0.00 / psy_rd=1.10:0.20 / mixed_ref=1 / me_range=32 / chroma_me=1 / trellis=2 / 8x8dct=1 / cqm=0 / deadzone=21,11 / fast_pskip=1 / chroma_qp_offset=-3 / threads=12 / lookahead_threads=3 / sliced_threads=0 / nr=0 / decimate=1 / interlaced=0 / bluray_compat=0 / constrained_intra=0 / fgo=0 / bframes=10 / b_pyramid=2 / b_adapt=2 / b_bias=0 / direct=1 / weightb=1 / open_gop=0 / weightp=2 / keyint=250 / keyint_min=23 / scenecut=40 / intra_refresh=0 / rc_lookahead=50 / rc=crf / mbtree=0 / crf=18.4000 / qcomp=0.60 / qpmin=0 / qpmax=69 / qpstep=4 / vbv_maxrate=40000 / vbv_bufsize=62500 / crf_max=0.0 / nal_hrd=none / filler=0 / ip_ratio=1.40 / pb_ratio=1.30 / aq=1:1.00
Язык : English
Default : Да
Forced : Нет
DURATION : 01:52:42.756000000
NUMBER_OF_FRAMES : 162144
NUMBER_OF_BYTES : 2136980211
_STATISTICS_WRITING_APP : mkvmerge v7.8.0 ('River Man') 64bit built on Mar 27 2015 16:31:37
_STATISTICS_WRITING_DATE_UTC : 2015-05-08 19:40:43
_STATISTICS_TAGS : BPS DURATION NUMBER_OF_FRAMES NUMBER_OF_BYTES
Аудио #1
Идентификатор : 2
Формат : AC-3
Формат/Информация : Audio Coding 3
Расширение режима : CM (complete main)
Параметр Endianness формата : Big
Идентификатор кодека : A_AC3
Продолжительность : 1 ч. 52 м.
Вид битрейта : Постоянный
Битрейт : 448 Кбит/сек
Каналы : 6 каналов
Расположение каналов : Front: L C R, Side: L R, LFE
Частота : 48,0 КГц
Битовая глубина : 16 бит
Метод сжатия : С потерями
Размер потока : 361 Мбайт (10%)
Заголовок : Gavrilov early
Язык : Russian
Default : Да
Forced : Нет
Аудио #2
Идентификатор : 3
Формат : AC-3
Формат/Информация : Audio Coding 3
Расширение режима : CM (complete main)
Параметр Endianness формата : Big
Идентификатор кодека : A_AC3
Продолжительность : 1 ч. 52 м.
Вид битрейта : Постоянный
Битрейт : 448 Кбит/сек
Каналы : 6 каналов
Расположение каналов : Front: L C R, Side: L R, LFE
Частота : 48,0 КГц
Битовая глубина : 16 бит
Метод сжатия : С потерями
Размер потока : 361 Мбайт (10%)
Заголовок : Gavrilov late
Язык : Russian
Default : Нет
Forced : Нет
Аудио #3
Идентификатор : 4
Формат : AC-3
Формат/Информация : Audio Coding 3
Расширение режима : CM (complete main)
Параметр Endianness формата : Big
Идентификатор кодека : A_AC3
Продолжительность : 1 ч. 52 м.
Вид битрейта : Постоянный
Битрейт : 448 Кбит/сек
Каналы : 6 каналов
Расположение каналов : Front: L C R, Side: L R, LFE
Частота : 48,0 КГц
Битовая глубина : 16 бит
Метод сжатия : С потерями
Размер потока : 361 Мбайт (10%)
Заголовок : Zhivov
Язык : Russian
Default : Нет
Forced : Нет
Аудио #4
Идентификатор : 5
Формат : AC-3
Формат/Информация : Audio Coding 3
Расширение режима : CM (complete main)
Параметр Endianness формата : Big
Идентификатор кодека : A_AC3
Продолжительность : 1 ч. 52 м.
Вид битрейта : Постоянный
Битрейт : 448 Кбит/сек
Каналы : 6 каналов
Расположение каналов : Front: L C R, Side: L R, LFE
Частота : 48,0 КГц
Битовая глубина : 16 бит
Метод сжатия : С потерями
Размер потока : 361 Мбайт (10%)
Заголовок : Gorchakov
Язык : Russian
Default : Нет
Forced : Нет
Аудио #5
Идентификатор : 6
Формат : AC-3
Формат/Информация : Audio Coding 3
Расширение режима : CM (complete main)
Параметр Endianness формата : Big
Идентификатор кодека : A_AC3
Продолжительность : 1 ч. 52 м.
Вид битрейта : Постоянный
Битрейт : 192 Кбит/сек
Каналы : 2 канала
Расположение каналов : Front: L R
Частота : 48,0 КГц
Битовая глубина : 16 бит
Метод сжатия : С потерями
Размер потока : 155 Мбайт (4%)
Заголовок : Volodarskiy
Язык : Russian
Default : Нет
Forced : Нет
Текст
Идентификатор : 7
Формат : PGS
Режим смешивания : zlib
Идентификатор кодека : S_HDMV/PGS
Идентификатор кодека/Информация : Picture based subtitle format used on BDs/HD-DVDs
Язык : Russian
Default : Нет
Forced : Нет
Меню
00:00:00.000 : en:
00:06:06.655 : en:
00:13:24.801 : en:
00:22:48.825 : en:
00:27:15.507 : en:
00:34:28.356 : en:
00:40:27.007 : en:
00:49:08.070 : en:
00:55:17.688 : en:
01:03:35.811 : en:
01:11:08.305 : en:
01:18:27.868 : en:
01:26:01.488 : en:
01:32:17.948 : en:
01:35:32.768 : en:
01:41:54.149 : en:

log x.264

[avs [info]: 1064x440p 1:1 @ 24000/1001 fps (cfr)
x264 [info]: using SAR=1/1
x264 [info]: using cpu capabilities: MMX2 SSE2Fast SSSE3 SSE4.2 AVX XOP FMA4 FMA3 LZCNT BMI1
x264 [info]: profile High, level 4.1
x264 [info]: cabac=1 ref=8 deblock=1:-2:-2 analyse=0x3:0x113 me=umh subme=11 psy=1 fade_compensate=0.00 psy_rd=1.10:0.20 mixed_ref=1 me_range=32 chroma_me=1 trellis=2 8x8dct=1 cqm=0 deadzone=21,11 fast_pskip=1 chroma_qp_offset=-3 threads=12 lookahead_threads=3 sliced_threads=0 nr=0 decimate=1 interlaced=0 bluray_compat=0 constrained_intra=0 fgo=0 bframes=10 b_pyramid=2 b_adapt=2 b_bias=0 direct=1 weightb=1 open_gop=0 weightp=2 keyint=250 keyint_min=23 scenecut=40 intra_refresh=0 rc_lookahead=50 rc=crf mbtree=0 crf=18.4000 qcomp=0.60 qpmin=0 qpmax=69 qpstep=4 vbv_maxrate=40000 vbv_bufsize=62500 crf_max=0.0 nal_hrd=none filler=0 ip_ratio=1.40 pb_ratio=1.30 aq=1:1.00
x264 [info]: frame I:1289 Avg QP:17.56 size: 62685
x264 [info]: frame P:38894 Avg QP:19.11 size: 24656
x264 [info]: frame B:121961 Avg QP:21.58 size: 8996
x264 [info]: consecutive B-frames: 2.8% 4.3% 10.7% 26.9% 20.0% 26.3% 4.7% 2.6% 0.8% 0.4% 0.4%
x264 [info]: mb I I16..4: 5.8% 73.0% 21.3%
x264 [info]: mb P I16..4: 0.8% 17.6% 2.3% P16..4: 27.4% 32.9% 12.7% 0.0% 0.0% skip: 6.4%
x264 [info]: mb B I16..4: 0.1% 1.9% 0.2% B16..8: 35.7% 23.4% 4.0% direct: 6.4% skip:28.3% L0:41.0% L1:44.0% BI:15.0%
x264 [info]: 8x8 transform intra:83.8% inter:52.4%
x264 [info]: coded y,uvDC,uvAC intra: 93.3% 85.9% 60.6% inter: 30.4% 20.1% 3.2%
x264 [info]: i16 v,h,dc,p: 32% 9% 9% 51%
x264 [info]: i8 v,h,dc,ddl,ddr,vr,hd,vl,hu: 11% 8% 8% 9% 13% 12% 13% 11% 14%
x264 [info]: i4 v,h,dc,ddl,ddr,vr,hd,vl,hu: 14% 9% 5% 8% 14% 13% 14% 10% 13%
x264 [info]: i8c dc,h,v,p: 42% 23% 18% 17%
x264 [info]: Weighted P-Frames: Y:7.5% UV:3.5%
x264 [info]: ref P L0: 46.0% 13.8% 18.4% 6.4% 5.6% 3.7% 3.6% 2.1% 0.5% 0.0%
x264 [info]: ref B L0: 76.5% 11.6% 5.2% 3.0% 2.0% 1.2% 0.5%
x264 [info]: ref B L1: 94.1% 5.9%
x264 [info]: kb/s:2527.94

Скриншоты

                     

_________________


Вне форума [Профиль] [ЛС]
Показать сообщения:    
Ответить на тему

Текущее время: Сегодня 13:34

Часовой пояс: GMT + 3



Вы не можете начинать темы
Вы не можете отвечать на сообщения
Вы не можете редактировать свои сообщения
Вы не можете удалять свои сообщения
Вы не можете голосовать в опросах
Вы не можете прикреплять файлы к сообщениям
Вы не можете скачивать файлы