Сегодня идет свободное скачивание без начисления Download

Расплата / Payback (Брайан Хелгеленд /Brian Helgeland) [1999 г., боевик, криминал, BDRip-AVC] [Theatrical cut] AVO (Гаврилов, Антонов, Диктор CDV) + Sub (Rus)

Ответить на тему
 
Автор
Сообщение

Clavik ®

Пол:

Стаж: 3 года 2 месяца

Сообщений: 2498

Откуда: Украина

Торрент-статистика

Пост 11-Май-2015 10:36

[Цитировать]

Расплата / Payback (Theatrical cut)
«Get ready to cheer for the bad guy!»
- Год выпуска: 1999
Производство: США
Жанр: боевик, криминал
Продолжительность: 01:41:19
Перевод: Авторский (одноголосый, закадровый) Гаврилов, Антонов, Диктор CDV
Субтитры: Отключаемые
Язык субтитров: Русский
Режиссер: Брайан Хелгеленд /Brian Helgeland
В ролях: Мэл Гибсон, Грегг Генри, Мария Белло, Дэвид Пэймер, Билл Дьюк, Дебора Кара Ангер, Джон Гловер, Уильям Дивэйн, Люси Лиу, Джек Конли
Описание: Член преступного могущественного синдиката должен заплатить своим боссам 130 тыс. долларов. Поэтому он приглашает Портера на дело. Вместе с ним и его женой они грабят автомобиль, в котором азиаты перевозят «грязные» деньги. Но жене Портера подлый мафиози подсовывает фотографию мужа в объятиях проститутки, и супруга всаживает в благоверного пулю за пулей. Сочтя его мертвым, они забирают деньги и уезжают. Однако Портер не умер и через пять месяцев вернулся, чтобы расплатиться — вернуть свои деньги и отомстить.

Качество видео: BDRip-AVC
Контейнер: MKV
Видео кодек: AVC / H.264
Видео: 1096x464 / 2078 kbps / 23,976 fps / 2,35:1 / High Profile 4.1
Аудио#1: 48 kHz, AC3 Dolby Digital, 3/2 (L,C,R,l,r) + LFE ch, ~448 kbps avg - Гаврилов
Аудио#2: 48 kHz, AC3 Dolby Digital, 2/0 (L,R) ch, ~192.00 kbps avg - Антонов
Аудио#3: 48 kHz, AC3 Dolby Digital, 3/2 (L,C,R,l,r) + LFE ch, ~384 kbps avg - Диктор CDV

Media Info

Формат : Matroska
Версия формата : Version 4 / Version 2
Размер файла : 2,20 Гбайт
Продолжительность : 1 ч. 41 м.
Общий поток : 3104 Кбит/сек
Название фильма : Payback.1999.BDRip-AVC.Theatrical Cut.Gavrilov.Antonov.Dictor CDV -=anton966=-
Дата кодирования : UTC 2015-05-10 21:37:17
Программа кодирования : mkvmerge v7.8.0 ('River Man') 64bit built on Mar 27 2015 16:31:37
Библиотека кодирования : libebml v1.3.1 + libmatroska v1.4.2
DURATION : 01:41:14.944000000
NUMBER_OF_FRAMES : 189842
NUMBER_OF_BYTES : 145798656
_STATISTICS_WRITING_APP : mkvmerge v7.8.0 ('River Man') 64bit built on Mar 27 2015 16:31:37
_STATISTICS_WRITING_DATE_UTC : 2015-05-10 21:37:17
_STATISTICS_TAGS : BPS DURATION NUMBER_OF_FRAMES NUMBER_OF_BYTES
Видео
Идентификатор : 1
Формат : AVC
Формат/Информация : Advanced Video Codec
Профиль формата : [email protected]
Параметр CABAC формата : Да
Параметр ReFrames формата : 8 кадров
Идентификатор кодека : V_MPEG4/ISO/AVC
Продолжительность : 1 ч. 41 м.
Битрейт : 2018 Кбит/сек
Ширина : 1096 пикселей
Высота : 464 пикселя
Соотношение сторон : 2,35:1
Режим частоты кадров : Постоянный
Частота кадров : 23,976 кадра/сек
Цветовое пространство : YUV
Субдискретизация насыщенности : 4:2:0
Битовая глубина : 8 бит
Тип развёртки : Прогрессивная
Бит/(Пиксели*Кадры) : 0.166
Размер потока : 1,43 Гбайт (65%)
Заголовок : Payback.1999.BDRip-AVC.Theatrical Cut
Библиотека кодирования : x264 core 146 r2538kMod 121396c
Настройки программы : cabac=1 / ref=8 / deblock=1:-3:-3 / analyse=0x3:0x113 / me=umh / subme=11 / psy=1 / fade_compensate=0.00 / psy_rd=1.05:0.20 / mixed_ref=1 / me_range=32 / chroma_me=1 / trellis=2 / 8x8dct=1 / cqm=0 / deadzone=21,11 / fast_pskip=1 / chroma_qp_offset=-3 / threads=12 / lookahead_threads=3 / sliced_threads=0 / nr=0 / decimate=1 / interlaced=0 / bluray_compat=0 / constrained_intra=0 / fgo=0 / bframes=10 / b_pyramid=2 / b_adapt=2 / b_bias=0 / direct=1 / weightb=1 / open_gop=0 / weightp=2 / keyint=250 / keyint_min=23 / scenecut=40 / intra_refresh=0 / rc_lookahead=50 / rc=crf / mbtree=0 / crf=18.6000 / qcomp=0.60 / qpmin=0 / qpmax=69 / qpstep=4 / vbv_maxrate=40000 / vbv_bufsize=62500 / crf_max=0.0 / nal_hrd=none / filler=0 / ip_ratio=1.40 / pb_ratio=1.30 / aq=1:1.00
Язык : English
Default : Да
Forced : Нет
DURATION : 01:41:19.866000000
NUMBER_OF_FRAMES : 145771
NUMBER_OF_BYTES : 1579277208
_STATISTICS_WRITING_APP : mkvmerge v7.8.0 ('River Man') 64bit built on Mar 27 2015 16:31:37
_STATISTICS_WRITING_DATE_UTC : 2015-05-10 21:37:17
_STATISTICS_TAGS : BPS DURATION NUMBER_OF_FRAMES NUMBER_OF_BYTES
Аудио #1
Идентификатор : 2
Формат : AC-3
Формат/Информация : Audio Coding 3
Расширение режима : CM (complete main)
Параметр Endianness формата : Big
Идентификатор кодека : A_AC3
Продолжительность : 1 ч. 41 м.
Вид битрейта : Постоянный
Битрейт : 448 Кбит/сек
Каналы : 6 каналов
Расположение каналов : Front: L C R, Side: L R, LFE
Частота : 48,0 КГц
Битовая глубина : 16 бит
Метод сжатия : С потерями
Размер потока : 325 Мбайт (14%)
Заголовок : Gavrilov
Язык : Russian
Default : Да
Forced : Нет
Аудио #2
Идентификатор : 3
Формат : AC-3
Формат/Информация : Audio Coding 3
Профиль формата : Dolby Digital
Расширение режима : CM (complete main)
Параметр Endianness формата : Big
Идентификатор кодека : A_AC3
Продолжительность : 1 ч. 41 м.
Вид битрейта : Постоянный
Битрейт : 192 Кбит/сек
Каналы : 2 канала
Расположение каналов : Front: L R
Частота : 48,0 КГц
Битовая глубина : 16 бит
Метод сжатия : С потерями
Размер потока : 139 Мбайт (6%)
Заголовок : Antonov
Язык : Russian
Default : Нет
Forced : Нет
Аудио #3
Идентификатор : 4
Формат : AC-3
Формат/Информация : Audio Coding 3
Расширение режима : CM (complete main)
Параметр Endianness формата : Big
Идентификатор кодека : A_AC3
Продолжительность : 1 ч. 41 м.
Вид битрейта : Постоянный
Битрейт : 384 Кбит/сек
Каналы : 6 каналов
Расположение каналов : Front: L C R, Side: L R, LFE
Частота : 48,0 КГц
Битовая глубина : 16 бит
Метод сжатия : С потерями
Размер потока : 278 Мбайт (12%)
Заголовок : Dictor CDV
Язык : Russian
Default : Нет
Forced : Нет
Текст #1
Идентификатор : 5
Формат : UTF-8
Идентификатор кодека : S_TEXT/UTF8
Идентификатор кодека/Информация : UTF-8 Plain Text
Заголовок : Goblin
Язык : Russian
Default : Нет
Forced : Нет
Текст #2
Идентификатор : 6
Формат : UTF-8
Идентификатор кодека : S_TEXT/UTF8
Идентификатор кодека/Информация : UTF-8 Plain Text
Заголовок : Kinomania
Язык : Russian
Default : Нет
Forced : Нет
Меню
00:00:00.000 : en:Old habits
00:07:38.124 : en:You're not dead
00:12:49.060 : en:Not enough
00:20:16.590 : en:Arthur Stegman
00:27:41.743 : en:Can't you see I'm working?
00:34:28.191 : en:Rosie
00:39:57.270 : en:No hard feelings
00:43:30.650 : en:Mr. Carter
00:48:52.429 : en:New friends
00:56:15.831 : en:What good are you?
01:02:10.101 : en:Nobody has this number
01:05:43.481 : en:Moving up in the world
01:13:50.593 : en:Bury them first
01:16:30.628 : en:Happy Birthday Johnny
01:19:49.118 : en:Only seventy thousand?
01:25:44.890 : en:This little piggy
01:32:57.030 : en:24 Fielding
01:36:09.555 : en:Aiming high

log x.264

avs [info]: 1096x464p 1:1 @ 24000/1001 fps (cfr)
x264 [info]: using SAR=1/1
x264 [info]: using cpu capabilities: MMX2 SSE2Fast SSSE3 SSE4.2 AVX XOP FMA4 FMA3 LZCNT BMI1
x264 [info]: profile High, level 4.1
x264 [info]: cabac=1 ref=8 deblock=1:-3:-3 analyse=0x3:0x113 me=umh subme=11 psy=1 fade_compensate=0.00 psy_rd=1.05:0.20 mixed_ref=1 me_range=32 chroma_me=1 trellis=2 8x8dct=1 cqm=0 deadzone=21,11 fast_pskip=1 chroma_qp_offset=-3 threads=12 lookahead_threads=3 sliced_threads=0 nr=0 decimate=1 interlaced=0 bluray_compat=0 constrained_intra=0 fgo=0 bframes=10 b_pyramid=2 b_adapt=2 b_bias=0 direct=1 weightb=1 open_gop=0 weightp=2 keyint=250 keyint_min=23 scenecut=40 intra_refresh=0 rc_lookahead=50 rc=crf mbtree=0 crf=18.6000 qcomp=0.60 qpmin=0 qpmax=69 qpstep=4 vbv_maxrate=40000 vbv_bufsize=62500 crf_max=0.0 nal_hrd=none filler=0 ip_ratio=1.40 pb_ratio=1.30 aq=1:1.00
x264 [info]: frame I:1293 Avg QP:16.21 size: 62332
x264 [info]: frame P:29612 Avg QP:17.34 size: 24726
x264 [info]: frame B:114866 Avg QP:19.82 size: 6673
x264 [info]: consecutive B-frames: 1.9% 1.9% 5.3% 13.0% 21.0% 46.6% 5.9% 2.8% 0.8% 0.6% 0.1%
x264 [info]: mb I I16..4: 17.6% 67.1% 15.4%
x264 [info]: mb P I16..4: 0.6% 9.1% 1.0% P16..4: 30.2% 40.5% 16.6% 0.0% 0.0% skip: 2.0%
x264 [info]: mb B I16..4: 0.0% 0.5% 0.1% B16..8: 42.6% 23.4% 3.5% direct: 3.4% skip:26.6% L0:44.0% L1:44.9% BI:11.0%
x264 [info]: 8x8 transform intra:81.1% inter:48.1%
x264 [info]: coded y,uvDC,uvAC intra: 97.0% 62.0% 30.6% inter: 21.7% 6.2% 0.1%
x264 [info]: i16 v,h,dc,p: 4% 3% 47% 46%
x264 [info]: i8 v,h,dc,ddl,ddr,vr,hd,vl,hu: 10% 10% 12% 8% 12% 12% 12% 11% 12%
x264 [info]: i4 v,h,dc,ddl,ddr,vr,hd,vl,hu: 11% 10% 3% 8% 16% 16% 14% 11% 12%
x264 [info]: i8c dc,h,v,p: 26% 39% 21% 15%
x264 [info]: Weighted P-Frames: Y:6.5% UV:1.4%
x264 [info]: ref P L0: 39.8% 8.8% 20.9% 7.7% 8.2% 5.2% 5.8% 3.0% 0.5% 0.0%
x264 [info]: ref B L0: 68.9% 13.7% 7.1% 4.5% 3.2% 1.9% 0.7%
x264 [info]: ref B L1: 93.2% 6.8%
x264 [info]: kb/s:2078.04

Скриншоты

                     

_________________


Вне форума [Профиль] [ЛС]
Показать сообщения:    
Ответить на тему

Текущее время: Сегодня 10:54

Часовой пояс: GMT + 3



Вы не можете начинать темы
Вы не можете отвечать на сообщения
Вы не можете редактировать свои сообщения
Вы не можете удалять свои сообщения
Вы не можете голосовать в опросах
Вы не можете прикреплять файлы к сообщениям
Вы не можете скачивать файлы