Сегодня идет свободное скачивание без начисления Download

Перепутанные наследники / Наследство и последствия / Splitting Heirs (Роберт Янг / Robert Young) [1993 г., Комедия, HD TVRIP-AVC] AVO (Алексей Михалев)

Ответить на тему
 
Автор
Сообщение

Clavik ®

Пол:

Стаж: 3 года 2 месяца

Сообщений: 2498

Откуда: Украина

Торрент-статистика

Пост 11-Май-2015 21:15

[Цитировать]

Перепутанные наследники / Наследство и последствия / Splitting Heirs
«A wickedly funny comedy of royal proportions»
- Год выпуска: 1993
Производство: Великобритания
Жанр: Комедия
Продолжительность: 01:23:52
Перевод: Авторский (одноголосый, закадровый) Алексей Михалев
Субтитры: отсутствуют
Режиссер: Роберт Янг / Robert Young
В ролях: Эрик Айдл, Рик Морэнис, Барбара Херши, Кэтрин Зета-Джонс, Джон Клиз, Сэди Фрост, Стрэтфорд Джонс, Бренда Брюс, Уильям Франклин, Чару Бала Чокши
Описание: Сын хипующего британского лорда и сексапильной американки был по рассеянности перепутан с младенцем честолюбивого повара-индуса. В результате этого досадного недоразумения истинный наследник Томми вырос в лондонских трущобах, а Генри стал отпрыском благородных кровей. Проходят годы, и наступает время выяснить, кто по-настоящему достоин наследства и титула.

Качество видео: HD TVRIP-AVC
Контейнер: MKV
Видео кодек: AVC / H.264
Видео: 1096x464 / 2078 kbps / 23,976 fps / 2,35:1 / High Profile 4.1
Аудио : 48 kHz, AC3 Dolby Digital, 2/0 (L,R) ch, ~192.00 kbps avg - Михалев

Награды

Каннский кинофестиваль, 1993 год
Номинации (1):
Золотая пальмовая ветвь

Media Info

Формат : Matroska
Версия формата : Version 4 / Version 2
Размер файла : 1,99 Гбайт
Продолжительность : 1 ч. 23 м.
Общий поток : 3400 Кбит/сек
Название фильма : Splitting Heirs.1993.x264.HDTVRip-AVC.Mihalev -=anton966=-
Дата кодирования : UTC 2015-05-11 14:55:08
Программа кодирования : mkvmerge v7.9.0 ('Birds') 64bit
Библиотека кодирования : libebml v1.3.1 + libmatroska v1.4.2
DURATION : 01:20:53.088000000
NUMBER_OF_FRAMES : 151659
NUMBER_OF_BYTES : 116474112
_STATISTICS_WRITING_APP : mkvmerge v7.9.0 ('Birds') 64bit
_STATISTICS_WRITING_DATE_UTC : 2015-05-11 14:55:08
_STATISTICS_TAGS : BPS DURATION NUMBER_OF_FRAMES NUMBER_OF_BYTES
Видео
Идентификатор : 1
Формат : AVC
Формат/Информация : Advanced Video Codec
Профиль формата : [email protected]
Параметр CABAC формата : Да
Параметр ReFrames формата : 8 кадров
Идентификатор кодека : V_MPEG4/ISO/AVC
Продолжительность : 1 ч. 23 м.
Битрейт : 3140 Кбит/сек
Ширина : 1064 пикселя
Высота : 596 пикселей
Соотношение сторон : 16:9
Режим частоты кадров : Постоянный
Частота кадров : 25,000 кадров/сек
Цветовое пространство : YUV
Субдискретизация насыщенности : 4:2:0
Битовая глубина : 8 бит
Тип развёртки : Прогрессивная
Бит/(Пиксели*Кадры) : 0.198
Размер потока : 1,84 Гбайт (92%)
Заголовок : Splitting Heirs.1993.x264.HDTVRip-AVC
Библиотека кодирования : x264 core 146 r2538kMod 121396c
Настройки программы : cabac=1 / ref=8 / deblock=1:-3:-3 / analyse=0x3:0x113 / me=umh / subme=11 / psy=1 / fade_compensate=0.00 / psy_rd=1.05:0.20 / mixed_ref=1 / me_range=32 / chroma_me=1 / trellis=2 / 8x8dct=1 / cqm=0 / deadzone=21,11 / fast_pskip=1 / chroma_qp_offset=-3 / threads=12 / lookahead_threads=3 / sliced_threads=0 / nr=0 / decimate=1 / interlaced=0 / bluray_compat=0 / constrained_intra=0 / fgo=0 / bframes=10 / b_pyramid=2 / b_adapt=2 / b_bias=0 / direct=1 / weightb=1 / open_gop=0 / weightp=2 / keyint=250 / keyint_min=25 / scenecut=40 / intra_refresh=0 / rc_lookahead=50 / rc=crf / mbtree=0 / crf=18.8000 / qcomp=0.60 / qpmin=0 / qpmax=69 / qpstep=4 / vbv_maxrate=40000 / vbv_bufsize=62500 / crf_max=0.0 / nal_hrd=none / filler=0 / ip_ratio=1.44 / pb_ratio=1.30 / aq=1:1.00
Язык : English
Default : Да
Forced : Нет
DURATION : 01:23:52.600000000
NUMBER_OF_FRAMES : 125815
NUMBER_OF_BYTES : 2021019117
_STATISTICS_WRITING_APP : mkvmerge v7.9.0 ('Birds') 64bit
_STATISTICS_WRITING_DATE_UTC : 2015-05-11 14:55:08
_STATISTICS_TAGS : BPS DURATION NUMBER_OF_FRAMES NUMBER_OF_BYTES
Аудио
Идентификатор : 2
Формат : AC-3
Формат/Информация : Audio Coding 3
Расширение режима : CM (complete main)
Параметр Endianness формата : Big
Идентификатор кодека : A_AC3
Продолжительность : 1 ч. 23 м.
Вид битрейта : Постоянный
Битрейт : 192 Кбит/сек
Каналы : 2 канала
Расположение каналов : Front: L R
Частота : 48,0 КГц
Битовая глубина : 16 бит
Метод сжатия : С потерями
Размер потока : 115 Мбайт (6%)
Заголовок : Mihalev
Язык : Russian
Default : Да
Forced : Нет

log x.264

avs [info]: 1064x596p 1:1 @ 25/1 fps (cfr)
x264 [info]: using SAR=1/1
x264 [info]: using cpu capabilities: MMX2 SSE2Fast SSSE3 SSE4.2 AVX XOP FMA4 FMA3 LZCNT BMI1
x264 [info]: profile High, level 4.1
x264 [info]: cabac=1 ref=8 deblock=1:-3:-3 analyse=0x3:0x113 me=umh subme=11 psy=1 fade_compensate=0.00 psy_rd=1.05:0.20 mixed_ref=1 me_range=32 chroma_me=1 trellis=2 8x8dct=1 cqm=0 deadzone=21,11 fast_pskip=1 chroma_qp_offset=-3 threads=12 lookahead_threads=3 sliced_threads=0 nr=0 decimate=1 interlaced=0 bluray_compat=0 constrained_intra=0 fgo=0 bframes=10 b_pyramid=2 b_adapt=2 b_bias=0 direct=1 weightb=1 open_gop=0 weightp=2 keyint=250 keyint_min=25 scenecut=40 intra_refresh=0 rc_lookahead=50 rc=crf mbtree=0 crf=18.8000 qcomp=0.60 qpmin=0 qpmax=69 qpstep=4 vbv_maxrate=40000 vbv_bufsize=62500 crf_max=0.0 nal_hrd=none filler=0 ip_ratio=1.44 pb_ratio=1.30 aq=1:1.00
x264 [info]: frame I:963 Avg QP:17.74 size: 85262
x264 [info]: frame P:29937 Avg QP:19.23 size: 28690
x264 [info]: frame B:94915 Avg QP:21.48 size: 11379
x264 [info]: consecutive B-frames: 2.0% 4.1% 6.5% 40.7% 26.4% 7.6% 3.7% 3.1% 5.1% 0.5% 0.2%
x264 [info]: mb I I16..4: 8.9% 71.7% 19.4%
x264 [info]: mb P I16..4: 0.8% 16.7% 2.7% P16..4: 28.7% 33.7% 12.1% 0.0% 0.0% skip: 5.2%
x264 [info]: mb B I16..4: 0.1% 2.0% 0.4% B16..8: 35.1% 20.2% 2.8% direct: 7.2% skip:32.3% L0:38.9% L1:43.8% BI:17.3%
x264 [info]: 8x8 transform intra:80.7% inter:57.8%
x264 [info]: coded y,uvDC,uvAC intra: 90.1% 74.7% 40.6% inter: 30.1% 18.8% 0.9%
x264 [info]: i16 v,h,dc,p: 37% 9% 8% 47%
x264 [info]: i8 v,h,dc,ddl,ddr,vr,hd,vl,hu: 13% 10% 8% 8% 12% 13% 11% 12% 14%
x264 [info]: i4 v,h,dc,ddl,ddr,vr,hd,vl,hu: 37% 9% 5% 6% 9% 10% 8% 8% 8%
x264 [info]: i8c dc,h,v,p: 30% 31% 22% 17%
x264 [info]: Weighted P-Frames: Y:7.2% UV:3.3%
x264 [info]: ref P L0: 51.2% 14.0% 15.4% 6.1% 4.0% 3.8% 2.7% 2.4% 0.3% 0.0%
x264 [info]: ref B L0: 82.2% 9.9% 3.7% 1.7% 1.3% 0.7% 0.4%
x264 [info]: ref B L1: 92.9% 7.1%
x264 [info]: kb/s:3212.68

Скриншоты

                     

_________________


Вне форума [Профиль] [ЛС]
Похожие темы
Форум Тема Автор Торрент Отв. Посл. сообщение
./templates/default/images/folder_dl.gif Разное Екатерина II, Вольтер | Переписка Российской императрицы Екатерины второй с Вольтером [1802] [PDF] UndegraundMen
1 | 0

0 | 1543

6

2013-08-26 23:32
UndegraundMen Последнее
./templates/default/images/folder_dl.gif Компьютерная литература Д.А. Перепелкин | Схемотехника усилительных устройств (2014) [PDF, DJVU] [email protected]
1 | 0

0 | 66

1

2016-10-29 22:00
[email protected] Последнее
Показать сообщения:    
Ответить на тему

Текущее время: Сегодня 17:35

Часовой пояс: GMT + 3



Вы не можете начинать темы
Вы не можете отвечать на сообщения
Вы не можете редактировать свои сообщения
Вы не можете удалять свои сообщения
Вы не можете голосовать в опросах
Вы не можете прикреплять файлы к сообщениям
Вы не можете скачивать файлы