Сегодня идет свободное скачивание без начисления Download

Оскар / Oscar (Джон Лэндис / John Landis) [1991 г., Комедия, HDTVRip]

Ответить на тему
 
Автор
Сообщение

Omen ®

Стаж: 4 года 1 месяц

Сообщений: 194382

Торрент-статистика

Пост 20-Апр-2012 13:00

[Цитировать]

Оскар
Oscar
-
Русское название: Оскар
Оригинальное название: Oscar
Год выпуска: 1991
Страна: США
Жанр: комедия, криминал
Кинокомпания: Silver Screen Partners IV, Touchstone Pictures
-Описание фильма:
У постели умирающего отца гангстер обещает прекратить преступную жизнь и стать легальным бизнесменом. Но невыносимая путаница и хаос в его доме приводят к тому, что «завязать» оказывается самой сложной работенкой из всех, что ему удавалось провернуть…-Режиссер: Джон Лэндис
Актеры: Сильвестр Сталлоне, Чазз Пальминтери, Питер Ригерт, Джои Траволта, Пол Греко, Ричард Форонджи, Ивонн Де Карло, Дон Амичи, Ричард Романус, Арлин Соркин, Эдди Брекен, Тони Мунафо, Роберт Лессер, Арт ЛаФлёр, Кертвуд Смит, Винсент Спано, Джойселин О'Браен, Мариса Томей, Мартин Ферреро, Гарри Ширер, Уильям Этертон, Марк Меткалф, Кен Ховард, Сэм Чю мл., Элизабет Барондес, Орнелла Мути, Сэл Веккьо, Тим Карри, Денни Голдстайн, Кай Вулфф, Линда Грэй, Маршалл Белл, Том Грант, Луис Д'Альто, Рик Эйвери, Джим Малхолланд, Джо Данте, Кирк Дуглас, Джим Абрахамс, Лиса Халстэд, Тино Инсана, Полли Магаро, Сэл Маззотта…-Продолжительность: 01:44:59
Перевод: Дублированный
Субтитры: отсутствуют
Автор рипа: ural28
Дата мировой премьеры: 26 апреля 1991-Видеокодек: DivX 5
Битрейт видео: ~2480 kbps
Размер кадра: 624x384
Качество видео: HDTVRip
Аудио:
1. MP3, 2 ch, ~192.00 kbps - русский
2. MP3, 2 ch, ~192.00 kbps - английский


MediaInfo:

Код:
General
Complete name                            : oscAr.1991.HDTVRip.avi
Format                                   : AVI
Format/Info                              : Audio Video Interleave
Format profile                           : OpenDML
File size                                : 2.11 GiB
Duration                                 : 1h 44mn
Overall bit rate                         : 2 871 Kbps
Writing application                      : FairUse Wizard -
Writing library                          : The best and REALLY easy backup tool
Video
ID                                       : 0
Format                                   : MPEG-4 Visual
Format settings, BVOP                    : 2
Format settings, QPel                    : No
Format settings, GMC                     : No warppoints
Format settings, Matrix                  : Default (MPEG)
Codec ID                                 : DX50
Codec ID/Hint                            : DivX 5
Duration                                 : 1h 44mn
Bit rate                                 : 2 468 Kbps
Width                                    : 624 pixels
Height                                   : 384 pixels
Display aspect ratio                     : 1.625
Frame rate                               : 25.000 fps
Color space                              : YUV
Chroma subsampling                       : 4:2:0
Bit depth                                : 8 bits
Scan type                                : Progressive
Compression mode                         : Lossy
Bits/(Pixel*Frame)                       : 0.412
Stream size                              : 1.81 GiB (86%)
Writing library                          : DivX 1328m
Audio #1
ID                                       : 1
Format                                   : MPEG Audio
Format version                           : Version 1
Format profile                           : Layer 3
Mode                                     : Joint stereo
Codec ID                                 : 55
Codec ID/Hint                            : MP3
Duration                                 : 1h 44mn
Bit rate mode                            : Constant
Bit rate                                 : 192 Kbps
Channel(s)                               : 2 channels
Sampling rate                            : 48.0 KHz
Compression mode                         : Lossy
Stream size                              : 144 MiB (7%)
Alignment                                : Aligned on interleaves
Interleave, duration                     : 40 ms (1.00 video frame)
Interleave, preload duration             : 504 ms
Writing library                          : LAME3.97
Encoding settings                        : -m j -V 4 -q 2 -lowpass 18.6 -b 192
Audio #2
ID                                       : 2
Format                                   : MPEG Audio
Format version                           : Version 1
Format profile                           : Layer 3
Mode                                     : Joint stereo
Codec ID                                 : 55
Codec ID/Hint                            : MP3
Duration                                 : 1h 44mn
Bit rate mode                            : Constant
Bit rate                                 : 192 Kbps
Channel(s)                               : 2 channels
Sampling rate                            : 48.0 KHz
Compression mode                         : Lossy
Stream size                              : 144 MiB (7%)
Alignment                                : Aligned on interleaves
Interleave, duration                     : 40 ms (1.00 video frame)
Interleave, preload duration             : 504 ms
Writing library                          : LAME3.97
Encoding settings                        : -m j -V 4 -q 2 -lowpass 18.6 -b 192
-Скриншоты:
         
         
-

Награды, рецензия:

Награды
Золотая малина, 1992 год
Номинации (3):
• Худшая мужская роль (Сильвестр Сталлоне)
• Худшая женская роль второго плана (Мариса Томей)
• Худший режиссер (Джон Лэндис)
Рецензия от Tifosssa с сайта КиНОПОиСК:
Разрушение стереотипов
Одна из любимых моих комедий американского происхождения — а таковых в моем списке значится не так и много…
Что мне в этом фильме безумно нравится — так это отсутствие пошлости и юмора «на грани фола». Плюс криминальное обаяние героя Сталлоне, «гангстерская» атмосфера, очарование эпохи 20—30-х годов — все эти элегантные костюмы-тройки, шляпы и дамские наряды, шикарные автомобили… словом, шик и блеск! Ну и конечно, закрученный наподобие поросячьего хвостика сюжет и невероятно смешные ситуации, в которые то и дело попадают герои — все это только немногие из причин, по которым этот фильм должен посмотреть каждый любитель хороших комедий!
Сдается мне, это одна из лучших ролей Сильвестра Сталлоне. Потому что здесь мы можем увидеть именно ЕГО, его комедийный дар, а не гору мышц или склад боеприпасов, за которыми обычно скрывается этот актер в своих фильмах. Это разрушенный стереотип номер один.
А номер два — это то, что этот ремейк, на мой взгляд, получился гораздо лучше оригинала с Луи де Фюнесом в главной роли. При всем моем уважении к этому актеру, новая версия получилась все-таки изящнее и остроумнее, что бывает нечасто, ведь на ремейках обжегся не один режиссер.
Так что если хотите от души посмеяться, а не «поржать», то смело выбирайте этот фильм и погружайтесь в один суматошный день из жизни обаятельного гангстера и его семейки!
Вне форума [Профиль] [ЛС]
Показать сообщения:    
Ответить на тему

Текущее время: Сегодня 00:19

Часовой пояс: GMT + 3



Вы не можете начинать темы
Вы не можете отвечать на сообщения
Вы не можете редактировать свои сообщения
Вы не можете удалять свои сообщения
Вы не можете голосовать в опросах
Вы не можете прикреплять файлы к сообщениям
Вы не можете скачивать файлы