Сегодня идет свободное скачивание без начисления Download

Восставший из ада: Антология / Hellraiser: Antology [Ужасы, Триллер, Фэнтези] (1987-2005) DVDRip

Ответить на тему
 
Автор
Сообщение

Diavol ®

Пол:

Стаж: 4 года 8 месяцев

Сообщений: 408

Откуда: Из будущего

Торрент-статистика

Пост 20-Апр-2012 18:45

[Цитировать]

--Восставший из ада: Антология / Hellraiser: Antology (1987-2005) DVDRip----Восставший из ада / Hellraiser (1987) DVDRip-- Русское название: Восставший из ада
Оригинальное название: Hellraiser
Год выпуска: 1987
Жанр: Ужасы, Триллер, Фэнтези-Описание фильма:
Расставив вокруг себя зажженные свечи, Френк открывает купленную им на восточном базаре старинную шкатулку. Легенда гласит, что живущие в ней демоны, могут доставить владельцу неописуемые наслаждения. Но Френк не мог и предположить, что эта шкатулка ключ к воротам из ада…-Режиссер: Клайв Баркер
Актеры: Эндрю Робинсон, Клэр Хиггинс, Эшли Лоуренс, Шон Чэпман, Оливер Смит, Роберт Хайнс, Энтони Аллен, Леон Дэвис, Майкл Кэссиди, Фрэнк Бэйкер-Продолжительность: 01:33:22
Перевод: Одноголосый закадровый [Гаврилов]-
Сэмпл-Качество видео: DVDRip
Bидео: XVID 704x384 23.98fps 1841Kbps
Aудио: Dolby AC3 48000Hz 6ch 384Kbps-

MediaInfo

General
Complete name : D:\3.Торренты\Vosstavshij.iz.ada.Antology\Vosstavshij.iz.ada.1.1987.XviD.DVDRip.avi
Format : AVI
Format/Info : Audio Video Interleave
File size : 1.46 GiB
Duration : 1h 33mn
Overall bit rate : 2 235 Kbps
Writing library : VirtualDub build 33769/release
Video
Format : MPEG-4 Visual
Format profile : Streaming [email protected]
Format settings, BVOP : Yes
Format settings, QPel : No
Format settings, GMC : No warppoints
Format settings, Matrix : Custom
Codec ID : XVID
Codec ID/Hint : XviD
Duration : 1h 33mn
Bit rate : 1 841 Kbps
Width : 704 pixels
Height : 384 pixels
Display aspect ratio : 16/9
Frame rate : 23.976 fps
Resolution : 24 bits
Colorimetry : 4:2:0
Scan type : Progressive
Bits/(Pixel*Frame) : 0.284
Stream size : 1.20 GiB (82%)
Writing library : XviD 64
Audio
Format : AC-3
Format/Info : Audio Coding 3
Codec ID : 2000
Duration : 1h 33mn
Bit rate mode : Constant
Bit rate : 384 Kbps
Channel(s) : 6 channels
Channel positions : Front: L C R, Surround: L R, LFE
Sampling rate : 48.0 KHz
Stream size : 256 MiB (17%)
Alignment : Aligned on interleaves
Interleave, duration : 42 ms (1.00 video frame)
Interleave, preload duration : 512 ms
Скриншоты:
         --Восставший из ада 2 / Hellbound: Hellraiser II (1988) DVDRip-- Русское название: Восставший из ада 2
Оригинальное название: Hellbound: Hellraiser II
Год выпуска: 1988
Жанр: Ужасы, Триллер, Фэнтези-Описание фильма:
На сей раз героиней становится приемная дочь Джулии Кирсти. Чудом спасшись из проклятого дома и пережив тяжелый шок, она попадает в психиатрическую клинику, принадлежащую доктору Ченнерду. Тот убеждает девушку, что пережитое-плод ее больного воображения. На самом деле Ченнерд сам пытается проникнуть в тайну загадочного магического кубика, ради чего готов пожертвовать своими беспомощными пациентами. Он оживляет кровожадную красавицу Джулию и, став рабом ее красоты, с рвением принимается за реализацию совместных зловещих планов. Когда он складывает головоломку, врата между преисподней и нашим миром оказываются открытыми. Кирсти попадает в его адские лабиринты и пытается спасти своего отца Ларри. Она получает послание от него, в котором он умоляет Кирсти вызволить его из этого страшного мира. Лишь она может противостоять этому дьявольскому сговору и спасти своего отца, для чего ей предстоит пройти страшный путь по коридорам Ада…-Режиссер: Тони Рэндел
Актеры: Клэр Хиггинс, Эшли Лоуренс, Кеннет Крэнэм, Имоджен Бурман, Шон Чэпман, Уильям Хоуп, Даг Брэдли, Барби Вильде, Саймон Бэмфорд, Николас Винс, Оливер Смит, Энгус МакИннес, Дебора Джоэль, James Tillitt, Брэдли Лэвэлл, Эдвин Крэйг, Рон Трэвис, Оливер Паркер, Катрин Шевалье-Продолжительность: 01:39:04
Перевод: Многоголосый закадровый-
Сэмпл-Качество видео: DVDRip
Bидео: XVID 704x384 23.98fps 1639Kbps
Aудио: Dolby AC3 48000Hz 6ch 448Kbps-

MediaInfo

General
Complete name : D:\3.Торренты\Vosstavshij.iz.ada.Antology\Vosstavshij.iz.ada.2.1988.XviD.DVDRip.avi
Format : AVI
Format/Info : Audio Video Interleave
File size : 1.45 GiB
Duration : 1h 39mn
Overall bit rate : 2 097 Kbps
Writing library : VirtualDub build 33769/release
Video
Format : MPEG-4 Visual
Format profile : Streaming [email protected]
Format settings, BVOP : Yes
Format settings, QPel : No
Format settings, GMC : No warppoints
Format settings, Matrix : Custom
Codec ID : XVID
Codec ID/Hint : XviD
Duration : 1h 39mn
Bit rate : 1 639 Kbps
Width : 704 pixels
Height : 384 pixels
Display aspect ratio : 16/9
Frame rate : 23.976 fps
Resolution : 24 bits
Colorimetry : 4:2:0
Scan type : Progressive
Bits/(Pixel*Frame) : 0.253
Stream size : 1.13 GiB (78%)
Writing library : XviD 1.2.0SMP (UTC 2006-01-08)
Audio
Format : AC-3
Format/Info : Audio Coding 3
Codec ID : 2000
Duration : 1h 39mn
Bit rate mode : Constant
Bit rate : 448 Kbps
Channel(s) : 6 channels
Channel positions : Front: L C R, Surround: L R, LFE
Sampling rate : 48.0 KHz
Stream size : 317 MiB (21%)
Alignment : Split accross interleaves
Interleave, duration : 42 ms (1.00 video frame)
Interleave, preload duration : 500 ms
Скриншоты:
         --Восставший из ада 3: Ад на земле / Hellraiser: Hell on Earth (1992) DVDRip-- Русское название: Восставший из ада 3: Ад на земле
Оригинальное название: Hellraiser: Hell on Earth
Год выпуска: 1992
Жанр: Ужасы, Триллер, Фэнтези-Описание фильма:
Недремлющее Зло вновь вырывается из своего потустороннего плена и начинает настоящую бойню. И, как это частенько водится, на всей планете есть только один человек, который в состоянии противостоять темной адской воле этого исчадия — милая и очаровательная тележурналистка Джоуи.-Режиссер: Энтони Хикокс
Актеры: Кевин Бернхардт, Лоуренс Морторфф, Терри Фаррелл, Кен Карпентер, Шарон Хилл, Пола Маршалл, Роберт С. Тревилер, Крис Фредерик, Шарон Персивал-Продолжительность: 01:32:33
Перевод: Многоголосый закадровый-
Сэмпл-Качество видео: DVDRip
Bидео: XVID 704x400 25.00fps 1799KbpsKbps
Aудио: Dolby AC3 48000Hz 6ch 448Kbps-

MediaInfo

General
Complete name : D:\3.Торренты\Vosstavshij.iz.ada.Antology\Vosstavshij.iz.ada.3.1992.XviD.DVDRip.avi
Format : AVI
Format/Info : Audio Video Interleave
File size : 1.46 GiB
Duration : 1h 32mn
Overall bit rate : 2 258 Kbps
Writing library : VirtualDub build 33769/release
Video
Format : MPEG-4 Visual
Format profile : Streaming [email protected]
Format settings, BVOP : Yes
Format settings, QPel : No
Format settings, GMC : No warppoints
Format settings, Matrix : Custom
Codec ID : XVID
Codec ID/Hint : XviD
Duration : 1h 32mn
Bit rate : 1 800 Kbps
Width : 704 pixels
Height : 400 pixels
Display aspect ratio : 16/9
Frame rate : 25.000 fps
Resolution : 24 bits
Colorimetry : 4:2:0
Scan type : Progressive
Bits/(Pixel*Frame) : 0.256
Stream size : 1.16 GiB (80%)
Writing library : XviD 1.1.0 (UTC 2005-11-22)
Audio
Format : AC-3
Format/Info : Audio Coding 3
Codec ID : 2000
Duration : 1h 32mn
Bit rate mode : Constant
Bit rate : 448 Kbps
Channel(s) : 6 channels
Channel positions : Front: L C R, Surround: L R, LFE
Sampling rate : 48.0 KHz
Stream size : 297 MiB (20%)
Alignment : Split accross interleaves
Interleave, duration : 40 ms (1.00 video frame)
Interleave, preload duration : 500 ms
Скриншоты:
         --Восставший из ада 4: Kровное родство / Hellraiser IV: Bloodline (1996) DVDRip-- Русское название: Восставший из ада 4: Kровное родство
Оригинальное название: Hellraiser IV: Bloodline
Год выпуска: 1996
Жанр: Ужасы, Триллер, Фэнтези-Описание фильма:
В межпланетных глубинах 21 века в 2127-ом году на космической станции Минос, Доктор Мерчант, одержимый какими-то странными, безумными идеями, захватил станцию, чтобы провести в жизнь свои таинственные эксперименты, Доктора «повязали», и он рассказал, как же он дошел до жизни такой, И выяснилось, что причина безумия доктора — в магическом кубике, изготовленном мастером игрушек Ле Маршаном еще несколько столетий назад.-Режиссер: Кевин Ягер, Алан Смити, Джо Чаппелль
Актеры: Брюс Рэмсей, Валентина Варгас, Даг Брэдли, Шарлотта Чаттон, Адам Скотт, Ким Майерс, Мики Коттрелл, Луи Тюренн, Кортленд Мид, Луис Мустилльо-Продолжительность: 01:21:28
Перевод: Одноголосый закадровый [Гаврилов]-
Сэмпл-Качество видео: DVDRip
Bидео: XVID 704x384 25.00fps 1942Kbps
Aудио: Dolby AC3 48000Hz 6ch 448Kbps-

MediaInfo

General
Complete name : D:\3.Торренты\Vosstavshij.iz.ada.Antology\Vosstavshij.iz.ada.4.1996.XviD.DVDRip.avi
Format : AVI
Format/Info : Audio Video Interleave
File size : 1.37 GiB
Duration : 1h 21mn
Overall bit rate : 2 401 Kbps
Writing application : VirtualDubMod 1.5.10.2 (build 2540/release)
Writing library : VirtualDubMod build 2540/release
Video
Format : MPEG-4 Visual
Format profile : Streaming [email protected]
Format settings, BVOP : Yes
Format settings, QPel : No
Format settings, GMC : No warppoints
Format settings, Matrix : Default
Codec ID : XVID
Codec ID/Hint : XviD
Duration : 1h 21mn
Bit rate : 1 943 Kbps
Width : 704 pixels
Height : 384 pixels
Display aspect ratio : 16/9
Frame rate : 25.000 fps
Resolution : 24 bits
Colorimetry : 4:2:0
Scan type : Progressive
Bits/(Pixel*Frame) : 0.287
Stream size : 1.11 GiB (81%)
Writing library : XviD 1.2.0.dev47 (UTC 2006-11-01)
Audio
Format : AC-3
Format/Info : Audio Coding 3
Codec ID : 2000
Duration : 1h 21mn
Bit rate mode : Constant
Bit rate : 448 Kbps
Channel(s) : 6 channels
Channel positions : Front: L C R, Surround: L R, LFE
Sampling rate : 48.0 KHz
Stream size : 261 MiB (19%)
Alignment : Split accross interleaves
Interleave, duration : 40 ms (1.00 video frame)
Interleave, preload duration : 500 ms
Скриншоты:
         --Восставший из ада 5: Преисподняя / Hellraiser: Inferno (2000) DVDRip-- Русское название: Восставший из ада 5: Преисподняя
Оригинальное название: Hellraiser: Inferno
Год выпуска: 2000
Жанр: Ужасы, Триллер, Фэнтези-Описание фильма:
Созданная в 18-м веке магическая головоломка, способная открыть дорогу в ад, попадает в руки порочного полицейского из Лос-Анджелеса. И с этого момента все вокруг становится кошмаром. Может это возмездие за его неправедную жизнь? Но тогда очень страшное, потому что беспредел, творимый Джозефом, оказывается лишь бледной тенью настоящего адского бесчинства, через которое ему предстоит пройти...-Режиссер: Скотт Дерриксон
Актеры: Крэйг Шеффер, Николас Туртурро, Джеймс Римар, Даг Брэдли, Николас Сэдлер, Ноэль Эванс, Линдсэй Тейлор, Мэтт Джордж, Майкл Шамус Уайлз, Александра Баррези-Продолжительность: 01:39:32
Перевод: Одноголосый закадровый [Гаврилов]-
Сэмпл-Качество видео: DVDRip
Bидео: XVID 704x384 23.98fps 1573Kbps
Aудио: Dolby AC3 48000Hz 6ch 384Kbps-

MediaInfo

General
Complete name : D:\3.Торренты\Vosstavshij.iz.ada.Antology\Vosstavshij.iz.ada.5.2000.XviD.DVDRip.avi
Format : AVI
Format/Info : Audio Video Interleave
File size : 1.37 GiB
Duration : 1h 39mn
Overall bit rate : 1 966 Kbps
Writing application : VirtualDubMod 1.5.10.2 (build 2540/release)
Writing library : VirtualDubMod build 2540/release
Video
Format : MPEG-4 Visual
Format profile : Streaming [email protected]
Format settings, BVOP : Yes
Format settings, QPel : No
Format settings, GMC : No warppoints
Format settings, Matrix : Default
Codec ID : XVID
Codec ID/Hint : XviD
Duration : 1h 39mn
Bit rate : 1 573 Kbps
Width : 704 pixels
Height : 384 pixels
Display aspect ratio : 16/9
Frame rate : 23.976 fps
Resolution : 24 bits
Colorimetry : 4:2:0
Scan type : Progressive
Bits/(Pixel*Frame) : 0.243
Stream size : 1.09 GiB (80%)
Writing library : XviD 1.2.0.dev47 (UTC 2006-11-01)
Audio
Format : AC-3
Format/Info : Audio Coding 3
Codec ID : 2000
Duration : 1h 39mn
Bit rate mode : Constant
Bit rate : 384 Kbps
Channel(s) : 6 channels
Channel positions : Front: L C R, Surround: L R, LFE
Sampling rate : 48.0 KHz
Stream size : 273 MiB (20%)
Alignment : Split accross interleaves
Interleave, duration : 42 ms (1.00 video frame)
Interleave, preload duration : 500 ms
Скриншоты:
         --Восставший из ада 6: Поиски ада / Hellraiser: Hellseeker (2002) DVDRip-- Русское название: Восставший из ада 6: Поиски ада
Оригинальное название: Hellraiser: Hellseeker
Год выпуска: 2002
Жанр: Ужасы, Триллер, Фэнтези-Описание фильма:
Спустя месяц после автокатастрофы, когда Тревор пришел в себя, выясняется, что тело его жены Кирсти так и не было найдено! Он возвращается к работе, но с ним начинают происходить ужасные вещи. Тревор оказывается в адском лабиринте, где непостижимым кошмаром сплелись жизнь и смерть. И он должен заплатить цену прежде, чем узнает ответ…-Режиссер: Рик Бота
Актеры: Дин Уинтерс, Эшли Лоуренс, Даг Брэдли, Рэйчел Хейярд, Сара-Джейн Редмонд, Джоди Томпсон, Каарен Де Зилва, Уильям С. Тейлор, Майкл Роджерс, Тревор Уайт-Продолжительность: 01:28:49
Перевод: Одноголосый закадровый [Гаврилов]-
Сэмпл-Качество видео: DVDRip
Bидео: XVID 704x384 23.98fps 1999Kbps
Aудио: Dolby AC3 48000Hz stereo 192Kbps-

MediaInfo

General
Complete name : D:\3.Торренты\Vosstavshij.iz.ada.Antology\Vosstavshij.iz.ada.6.2002.XviD.DVDRip.avi
Format : AVI
Format/Info : Audio Video Interleave
File size : 1.37 GiB
Duration : 1h 28mn
Overall bit rate : 2 201 Kbps
Writing application : VirtualDubMod 1.5.10.2 (build 2540/release)
Writing library : VirtualDubMod build 2540/release
Video
Format : MPEG-4 Visual
Format profile : Streaming [email protected]
Format settings, BVOP : Yes
Format settings, QPel : No
Format settings, GMC : No warppoints
Format settings, Matrix : Default
Codec ID : XVID
Codec ID/Hint : XviD
Duration : 1h 28mn
Bit rate : 2 000 Kbps
Width : 704 pixels
Height : 384 pixels
Display aspect ratio : 16/9
Frame rate : 23.976 fps
Resolution : 24 bits
Colorimetry : 4:2:0
Scan type : Progressive
Bits/(Pixel*Frame) : 0.309
Stream size : 1.24 GiB (91%)
Writing library : XviD 1.2.0.dev47 (UTC 2006-11-01)
Audio
Format : AC-3
Format/Info : Audio Coding 3
Codec ID : 2000
Duration : 1h 28mn
Bit rate mode : Constant
Bit rate : 192 Kbps
Channel(s) : 2 channels
Channel positions : L R
Sampling rate : 48.0 KHz
Stream size : 122 MiB (9%)
Alignment : Split accross interleaves
Interleave, duration : 42 ms (1.00 video frame)
Interleave, preload duration : 500 ms
Скриншоты:
         --Восставший из ада 7: Проводник смерти / Hellraiser: Deader (2005) DVDRip-- Русское название: Восставший из ада 7: Проводник смерти
Оригинальное название: Hellraiser: Deader
Год выпуска: 2005
Жанр: Ужасы, Триллер, Фэнтези-Описание фильма:
Журналистка лондонской газеты Эми Кляйн отправляется в Бухарест, чтобы расследовать там действия тайной секты, члены которой добровольно расстаются с жизнью путем самоубийства. Она с легкостью проникает в мрачный мир секты, но вскоре понимает, что теперь у нее нет другого пути кроме как присоединится к ее участникам в приготовлениях к пришествию их божества…-Режиссер: Рик Бота
Актеры: Кари Вурер, Пол Рис, Саймон Кунц, Марк Уоррен, Джорджина Райлэнс, Даг Брэдли
Линда Марлоу, Мадалина Константин-Продолжительность: 01:28:21
Перевод: Одноголосый закадровый [Гаврилов]-
Сэмпл-Качество видео: DVDRip
Bидео: XVID 704x384 23.98fps 1823Kbps
Aудио: Dolby AC3 48000Hz 6ch 384Kbps-

MediaInfo

General
Complete name : D:\3.Торренты\Vosstavshij.iz.ada.Antology\Vosstavshij.iz.ada.7.2005.XviD.DVDRip.avi
Format : AVI
Format/Info : Audio Video Interleave
File size : 1.37 GiB
Duration : 1h 28mn
Overall bit rate : 2 217 Kbps
Writing application : VirtualDubMod 1.5.10.2 (build 2540/release)
Writing library : VirtualDubMod build 2540/release
Video
Format : MPEG-4 Visual
Format profile : Streaming [email protected]
Format settings, BVOP : Yes
Format settings, QPel : No
Format settings, GMC : No warppoints
Format settings, Matrix : Default
Codec ID : XVID
Codec ID/Hint : XviD
Duration : 1h 28mn
Bit rate : 1 824 Kbps
Width : 704 pixels
Height : 384 pixels
Display aspect ratio : 16/9
Frame rate : 23.976 fps
Resolution : 24 bits
Colorimetry : 4:2:0
Scan type : Progressive
Bits/(Pixel*Frame) : 0.281
Stream size : 1.13 GiB (82%)
Writing library : XviD 1.2.0.dev47 (UTC 2006-11-01)
Audio
Format : AC-3
Format/Info : Audio Coding 3
Codec ID : 2000
Duration : 1h 28mn
Bit rate mode : Constant
Bit rate : 384 Kbps
Channel(s) : 6 channels
Channel positions : Front: L C R, Surround: L R, LFE
Sampling rate : 48.0 KHz
Stream size : 243 MiB (17%)
Alignment : Split accross interleaves
Interleave, duration : 42 ms (1.00 video frame)
Interleave, preload duration : 500 ms
Скриншоты:
         --Восставший из ада 8: Адский мир / Hellraiser: Hellworld (2005) DVDRip-- Русское название: Восставший из ада 8: Адский мир
Оригинальное название: Hellraiser: Hellworld
Год выпуска: 2005
Жанр: Ужасы, Триллер, Фэнтези-Описание фильма:
Группа ребят, помешанных на новой компьютерной игре Hellworld.com, получают приглашение от этого вебсайта на закрытую вечеринку, которая в конце концов становится для них пропуском в мир ужаса. Туда, где их ждет настоящая игра не на жизнь, а на смерть. Туда где заправляет безжалостный Пинхэд, и теперь он угрожает их жизням и душам по-настоящему…-Режиссер: Рик Бота
Актеры: Лэнс Хенриксен, Кэтрин Уинник, Кристофер Жакот, Хари Пэйтон, Генри Кавилл
Виктор МакГуайр, Даг Брэдли, Магдалена Тун-Продолжительность: 01:34:59
Перевод: Одноголосый закадровый [Гаврилов]-
Сэмпл-Качество видео: DVDRip
Bидео: XVID 704x384 23.98fps 1602Kbps
Aудио: Dolby AC3 48000Hz 6ch 448Kbps-

MediaInfo

General
Complete name : D:\3.Торренты\Vosstavshij.iz.ada.Antology\Vosstavshij.iz.ada.8.2005.XviD.DVDRip.avi
Format : AVI
Format/Info : Audio Video Interleave
File size : 1.37 GiB
Duration : 1h 34mn
Overall bit rate : 2 060 Kbps
Writing application : VirtualDubMod 1.5.10.2 (build 2540/release)
Writing library : VirtualDubMod build 2540/release
Video
Format : MPEG-4 Visual
Format profile : Streaming [email protected]
Format settings, BVOP : Yes
Format settings, QPel : No
Format settings, GMC : No warppoints
Format settings, Matrix : Default
Codec ID : XVID
Codec ID/Hint : XviD
Duration : 1h 34mn
Bit rate : 1 603 Kbps
Width : 704 pixels
Height : 384 pixels
Display aspect ratio : 16/9
Frame rate : 23.976 fps
Resolution : 24 bits
Colorimetry : 4:2:0
Scan type : Progressive
Bits/(Pixel*Frame) : 0.247
Stream size : 1.06 GiB (78%)
Writing library : XviD 1.2.0.dev47 (UTC 2006-11-01)
Audio
Format : AC-3
Format/Info : Audio Coding 3
Codec ID : 2000
Duration : 1h 34mn
Bit rate mode : Constant
Bit rate : 448 Kbps
Channel(s) : 6 channels
Channel positions : Front: L C R, Surround: L R, LFE
Sampling rate : 48.0 KHz
Stream size : 304 MiB (22%)
Alignment : Split accross interleaves
Interleave, duration : 42 ms (1.00 video frame)
Interleave, preload duration : 500 ms
Скриншоты:
         

_________________
Вне форума [Профиль] [ЛС]
Похожие темы
Форум Тема Автор Торрент Отв. Посл. сообщение
./templates/default/images/folder_dl.gif Обучающее видео О.А. Бутакова - Суставы. Пути восстановления (2011) SATRip Omen
0 | 1

1 | 1252

22

2015-05-27 14:54
Tatinezh Последнее
./templates/default/images/folder_dl.gif Медицина и Здоровье Олег Панков | Восстанавливаем зрение за 15 минут в день (2016) [FB2] moralis
1 | 0

0 | 183

8

2016-08-21 14:36
moralis Последнее
Показать сообщения:    
Ответить на тему

Текущее время: Сегодня 08:56

Часовой пояс: GMT + 3



Вы не можете начинать темы
Вы не можете отвечать на сообщения
Вы не можете редактировать свои сообщения
Вы не можете удалять свои сообщения
Вы не можете голосовать в опросах
Вы не можете прикреплять файлы к сообщениям
Вы не можете скачивать файлы