Today is a free download without charge Download

(Progressive Rock, Hard Rock) [CD] Rush - Rush In Rio (3CD) - 2003 (Atlantic Recording Corporation Japan), FLAC (image+.cue), lossless

Reply to topic
 
Author
Message

Omen ®

Longevity: 7 years 8 months

Posts: 181087

Торрент-статистика

Post 18-May-2015 12:45

[Quote]

Rush - Rush In Rio
Жанр: Progressive Rock, Hard Rock
Страна-производитель диска: Japan
Год издания диска: 2013
Издатель (лейбл): Warner Music/Atlantic Recording Corporation
Номер по каталогу: WPCR-11695~7
Страна: Canada
Аудио кодек: FLAC (*.flac)
Тип рипа: image+.cue
Битрейт аудио: lossless
Продолжительность: 02:53:26
Источник (релизер): Alex
Наличие сканов в содержимом раздачи:

Disc One (01:10:50)

01. Tom Sawyer (Pye Dubois, Lee, Lifeson, Peart) 05:04
02. Distant Early Warning 04:50
03. New World Man 04:04
04. Roll The Bones 06:15
05. Earthshine 05:44
06. YYZ 04:56 (Lee, Peart) 04:56
07. The Pass 04:52
08. Bravado 06:18
09. The Big Money 06:03
10. The Trees 05:12
11. Freewill 05:48
12. Closer To The Heart (Peter Talbot, Lee, Lifeson, Peart) 03:04
13. Natural Science 08:34
All Songs Written By Geddy Lee, Alex Lifeson & Neil Peart, except where noted.

Лог создания рипа

Exact Audio Copy V1.0 beta 1 from 15. November 2010
EAC extraction logfile from 25. November 2014, 13:19
Rush / Rush In Rio (CD 1)
Used drive : MATSHITADVD-RAM UJ8A0AS Adapter: 0 ID: 1
Read mode : SecureUtilize accurate stream : YesDefeat audio cache : YesMake use of C2 pointers : No
Read offset correction : 102Overread into Lead-In and Lead-Out : NoFill up missing offset samples with silence : YesDelete leading and trailing silent blocks : NoNull samples used in CRC calculations : YesUsed interface : Native Win32 interface for Win NT & 2000
Used output format : Internal WAV RoutinesSample format : 44.100 Hz; 16 Bit; Stereo
TOC of the extracted CD
Track | Start | Length | Start sector | End sector --------------------------------------------------------- 1 | 0:00.00 | 5:04.50 | 0 | 22849 2 | 5:04.50 | 4:50.47 | 22850 | 44646 3 | 9:55.22 | 4:04.68 | 44647 | 63014 4 | 14:00.15 | 6:15.52 | 63015 | 91191 5 | 20:15.67 | 5:44.08 | 91192 | 116999 6 | 26:00.00 | 4:56.35 | 117000 | 139234 7 | 30:56.35 | 4:52.25 | 139235 | 161159 8 | 35:48.60 | 6:18.40 | 161160 | 189549 9 | 42:07.25 | 6:03.05 | 189550 | 216779 10 | 48:10.30 | 5:12.07 | 216780 | 240186 11 | 53:22.37 | 5:48.53 | 240187 | 266339 12 | 59:11.15 | 3:04.42 | 266340 | 280181 13 | 62:15.57 | 8:34.38 | 280182 | 318769
Range status and errors
Selected range
Filename C:\Users\Alex\Music\Rush - Rush In Rio (CD 1).wav
Peak level 100.0 % Extraction speed 0.1 X Range quality 100.0 % Test CRC B5E30F4C Copy CRC B5E30F4C Copy OK
No errors occurred
AccurateRip summary
Track 1 accurately ripped (confidence 85) [E609299F]Track 2 accurately ripped (confidence 85) [65EFD04D]Track 3 accurately ripped (confidence 85) [B90324EF]Track 4 accurately ripped (confidence 84) [BFFBB6C8]Track 5 accurately ripped (confidence 85) [DC9961C8]Track 6 accurately ripped (confidence 84) [61C8BBC9]Track 7 accurately ripped (confidence 84) [DE04B48B]Track 8 accurately ripped (confidence 83) [3D37898F]Track 9 accurately ripped (confidence 81) [0C248AC3]Track 10 accurately ripped (confidence 80) [294EAE5B]Track 11 accurately ripped (confidence 81) [70E9FB69]Track 12 accurately ripped (confidence 81) [90824D68]Track 13 accurately ripped (confidence 78) [5BE36303]
All tracks accurately ripped
End of status report
==== Log checksum E98C8863AF3DF011A6D7AAB4403A5D8FB40DF6B4751CE3A469DD78EB4477F725 ====

Содержание индексной карты (.CUE)

REM GENRE "Progressive Rock"REM DATE 2003REM DISCID B9109A0DREM COMMENT "ExactAudioCopy v1.0b1"PERFORMER "Rush"TITLE "Rush In Rio (CD 1)"FILE "Rush - Rush In Rio (CD 1).flac" WAVE TRACK 01 AUDIO TITLE "Tom Sawyer" PERFORMER "Rush" INDEX 01 00:00:00 TRACK 02 AUDIO TITLE "Distant Early Warning" PERFORMER "Rush" INDEX 00 05:01:17 INDEX 01 05:04:50 TRACK 03 AUDIO TITLE "New World Man" PERFORMER "Rush" INDEX 00 09:52:70 INDEX 01 09:55:22 TRACK 04 AUDIO TITLE "Roll The Bones" PERFORMER "Rush" INDEX 00 13:58:57 INDEX 01 14:00:15 TRACK 05 AUDIO TITLE "Earthshine" PERFORMER "Rush" INDEX 00 20:03:17 INDEX 01 20:15:67 TRACK 06 AUDIO TITLE "YYZ" PERFORMER "Rush" INDEX 00 25:58:42 INDEX 01 26:00:00 TRACK 07 AUDIO TITLE "The Pass" PERFORMER "Rush" INDEX 00 30:35:17 INDEX 01 30:56:35 TRACK 08 AUDIO TITLE "Bravado" PERFORMER "Rush" INDEX 00 35:46:62 INDEX 01 35:48:60 TRACK 09 AUDIO TITLE "The Big Money" PERFORMER "Rush" INDEX 00 42:04:10 INDEX 01 42:07:25 TRACK 10 AUDIO TITLE "The Trees" PERFORMER "Rush" INDEX 00 48:05:22 INDEX 01 48:10:30 TRACK 11 AUDIO TITLE "Freewill" PERFORMER "Rush" INDEX 00 53:17:22 INDEX 01 53:22:37 TRACK 12 AUDIO TITLE "Closer To The Heart" PERFORMER "Rush" INDEX 00 58:54:35 INDEX 01 59:11:15 TRACK 13 AUDIO TITLE "Natural Science" PERFORMER "Rush" INDEX 00 62:12:07 INDEX 01 62:15:57

Лог проверки качества

-----------------------
DON'T MODIFY THIS FILE
-----------------------
PERFORMER: auCDtect Task Manager, ver. 1.5.1RC4 build 1.5.1.5Copyright (c) 2008-2010 y-soft. All rights reservedhttp://y-soft.org
ANALYZER: auCDtect: CD records authenticity detector, version 0.8.2Copyright (c) 2004 Oleg Berngardt. All rights reserved.Copyright (c) 2004 Alexander Djourik. All rights reserved.
FILE: Rush - Rush In Rio (CD 1).flac Size: 527437565 Hash: E3B50708550F106B382DF2347B4D716A Accuracy: -m0 Conclusion: CDDA 100% Signature: 7940E110B3DF1898876073FABEED101698A478C8

CUETools log

[CUETools log; Date: 28.04.2015 23:33:20; Version: 2.1.4][CTDB TOCID: 34JIbCRgN93fZO7ti9FwzEwxCB0-] found.Track | CTDB Status 1 | (74/84) Accurately ripped 2 | (74/84) Accurately ripped 3 | (74/84) Accurately ripped 4 | (74/84) Accurately ripped 5 | (74/84) Accurately ripped 6 | (74/84) Accurately ripped 7 | (73/84) Accurately ripped 8 | (74/84) Accurately ripped 9 | (74/84) Accurately ripped 10 | (73/84) Accurately ripped 11 | (74/84) Accurately ripped 12 | (74/84) Accurately ripped 13 | (72/84) Accurately ripped[AccurateRip ID: 0020d1fc-014aaadc-b9109a0d] found.Track [ CRC | V2 ] Status 01 [e609299f|771c57a7] (153+091/297) Accurately ripped 02 [65efd04d|19d04a96] (153+091/296) Accurately ripped 03 [b90324ef|fedd071d] (154+091/297) Accurately ripped 04 [bffbb6c8|9d8ba144] (151+090/295) Accurately ripped 05 [dc9961c8|9a927668] (152+091/297) Accurately ripped 06 [61c8bbc9|a730f6ae] (154+090/295) Accurately ripped 07 [de04b48b|b2ffeb40] (151+090/294) Accurately ripped 08 [3d37898f|f05bff47] (153+089/294) Accurately ripped 09 [0c248ac3|4a3e82df] (146+087/284) Accurately ripped 10 [294eae5b|b4d032ec] (147+086/284) Accurately ripped 11 [70e9fb69|e1e0990d] (147+087/285) Accurately ripped 12 [90824d68|ba260232] (147+087/286) Accurately ripped 13 [5be36303|5bdb8fe7] (141+084/273) Accurately rippedOffsetted by -664: 01 [c4ac82ee] (005/297) Accurately ripped 02 [0c6f2086] (005/296) Accurately ripped 03 [43a88542] (005/297) Accurately ripped 04 [7e1c92e2] (005/295) Accurately ripped 05 [1f28dc95] (005/297) Accurately ripped 06 [7a9cecfb] (005/295) Accurately ripped 07 [c6156ee0] (005/294) Accurately ripped 08 [49810108] (005/294) Accurately ripped 09 [627a36d6] (005/284) Accurately ripped 10 [dd072b49] (005/284) Accurately ripped 11 [1db7a1ab] (005/285) Accurately ripped 12 [88b9420e] (005/286) Accurately ripped 13 [8331ca74] (005/273) Accurately rippedOffsetted by -53: 01 [03d3a9c6] (003/297) Accurately ripped 02 [c4ec3b9e] (002/296) Accurately ripped 03 [fe79c7ad] (002/297) Accurately ripped 04 [278a06be] (002/295) Accurately ripped 05 [4cd78d3e] (002/297) Accurately ripped 06 [8a7e9da7] (002/295) Accurately ripped 07 [03ec2057] (002/294) Accurately ripped 08 [9c738a9c] (002/294) Accurately ripped 09 [2a3ef947] (002/284) Accurately ripped 10 [2ce198f9] (002/284) Accurately ripped 11 [abae703a] (002/285) Accurately ripped 12 [33fa49d4] (002/286) Accurately ripped 13 [65766070] (002/273) Accurately rippedOffsetted by 6: 01 [c1a5650f] (000/297) No match 02 [63ab1726] (000/296) No match 03 [d7d10631] (000/297) No match 04 [bfd094a5] (002/295) Accurately ripped 05 [792fa5d0] (000/297) No match 06 [91f74567] (000/295) No match 07 [8813c4be] (000/294) No match 08 [b5c6e81e] (000/294) No match 09 [b0dbdabf] (000/284) No match 10 [74d3ab29] (000/284) No match 11 [513b69b1] (000/285) No match 12 [c643a7de] (000/286) No match 13 [e8e5acbd] (000/273) No match
Track Peak [ CRC32 ] [W/O NULL] [ LOG ] -- 100,0 [B5E30F4C] [6BA822A9] CRC32 01 99,4 [E687F980] [E778FE28] 02 99,4 [A7B666F0] [6B18AA87] 03 99,2 [81B014EB] [E5DE68B6] 04 99,4 [4DD5C899] [CA9889E7] 05 99,1 [3C5510B7] [8CFB0726] 06 99,4 [AC8F5A7B] [3237B114] 07 99,4 [E217688D] [0E013A09] 08 100,0 [87335FE0] [B6367167] 09 99,3 [BAAE0607] [DE48543A] 10 99,4 [97CB98A1] [AD7C21F4] 11 100,0 [8B075209] [5D4C5370] 12 99,4 [719CFAB0] [1FDFD939] 13 99,0 [3E108908] [DE7B67F3]

Disc Two (00:59:08)

01. One Little Victory 05:32
02. Driven 05:22
03. Ghost Rider 05:36
04. Secret Touch 07:00
05. Dreamline 05:10
06. Red Sector A 05:16
07. Leave That Thing Alone (Instrumental) 04:59
08. O Baterista (instrumental) (Peart) 08:54
09. Resist 04:23
10. 2112 06:52
All Songs Written By Geddy Lee, Alex Lifeson & Neil Peart.

Лог создания рипа

Exact Audio Copy V1.0 beta 1 from 15. November 2010
EAC extraction logfile from 25. November 2014, 15:05
Rush / Rush In Rio [CD 2]
Used drive : MATSHITADVD-RAM UJ8A0AS Adapter: 0 ID: 1
Read mode : SecureUtilize accurate stream : YesDefeat audio cache : YesMake use of C2 pointers : No
Read offset correction : 102Overread into Lead-In and Lead-Out : NoFill up missing offset samples with silence : YesDelete leading and trailing silent blocks : NoNull samples used in CRC calculations : YesUsed interface : Native Win32 interface for Win NT & 2000
Used output format : Internal WAV RoutinesSample format : 44.100 Hz; 16 Bit; Stereo
TOC of the extracted CD
Track | Start | Length | Start sector | End sector --------------------------------------------------------- 1 | 0:00.00 | 5:32.25 | 0 | 24924 2 | 5:32.25 | 5:22.47 | 24925 | 49121 3 | 10:54.72 | 5:36.55 | 49122 | 74376 4 | 16:31.52 | 7:00.03 | 74377 | 105879 5 | 23:31.55 | 5:10.35 | 105880 | 129164 6 | 28:42.15 | 5:16.65 | 129165 | 152929 7 | 33:59.05 | 4:59.05 | 152930 | 175359 8 | 38:58.10 | 8:54.20 | 175360 | 215429 9 | 47:52.30 | 4:23.52 | 215430 | 235206 10 | 52:16.07 | 6:52.23 | 235207 | 266129
Range status and errors
Selected range
Filename C:\Users\Alex\Music\Rush - Rush In Rio [CD 2].wav
Peak level 99.4 % Extraction speed 0.1 X Range quality 100.0 % Test CRC 92FA009C Copy CRC 92FA009C Copy OK
No errors occurred
AccurateRip summary
Track 1 accurately ripped (confidence 14) [52A8F163]Track 2 accurately ripped (confidence 14) [DCCE396F]Track 3 accurately ripped (confidence 14) [57B656F6]Track 4 accurately ripped (confidence 14) [E81778DF]Track 5 accurately ripped (confidence 14) [075B9DE3]Track 6 accurately ripped (confidence 14) [400C042B]Track 7 accurately ripped (confidence 14) [D854690E]Track 8 accurately ripped (confidence 14) [3264337C]Track 9 accurately ripped (confidence 13) [9B01CF18]Track 10 accurately ripped (confidence 12) [67E6BB0D]
All tracks accurately ripped
End of status report
==== Log checksum 0878DA24A8D10A89A6DEB26A2DC9EC3ACB06874CF78973ABEED9ED98ED81CA37 ====

Содержание индексной карты (.CUE)

REM GENRE "Progressive Rock"REM DATE 2003REM DISCID 7D0DDC0AREM COMMENT "ExactAudioCopy v1.0b1"PERFORMER "Rush"TITLE "Rush In Rio [CD 2]"FILE "Rush - Rush In Rio [CD 2].flac" WAVE TRACK 01 AUDIO TITLE "One Little Victory" PERFORMER "Rush" INDEX 01 00:00:00 TRACK 02 AUDIO TITLE "Driven" PERFORMER "Rush" INDEX 01 05:32:25 TRACK 03 AUDIO TITLE "Ghost Rider" PERFORMER "Rush" INDEX 00 10:37:50 INDEX 01 10:54:72 TRACK 04 AUDIO TITLE "Secret Touch" PERFORMER "Rush" INDEX 00 16:30:57 INDEX 01 16:31:52 TRACK 05 AUDIO TITLE "Dreamline" PERFORMER "Rush" INDEX 01 23:31:55 TRACK 06 AUDIO TITLE "Red Sector A" PERFORMER "Rush" INDEX 00 28:36:07 INDEX 01 28:42:15 TRACK 07 AUDIO TITLE "Leave That Thing Alone" PERFORMER "Rush" INDEX 00 33:53:62 INDEX 01 33:59:05 TRACK 08 AUDIO TITLE "O Baterista" PERFORMER "Rush" INDEX 01 38:58:10 TRACK 09 AUDIO TITLE "Resist" PERFORMER "Rush" INDEX 00 47:15:55 INDEX 01 47:52:30 TRACK 10 AUDIO TITLE "2112" PERFORMER "Rush" INDEX 01 52:16:07

Лог проверки качества

-----------------------
DON'T MODIFY THIS FILE
-----------------------
PERFORMER: auCDtect Task Manager, ver. 1.5.1RC4 build 1.5.1.5Copyright (c) 2008-2010 y-soft. All rights reservedhttp://y-soft.org
ANALYZER: auCDtect: CD records authenticity detector, version 0.8.2Copyright (c) 2004 Oleg Berngardt. All rights reserved.Copyright (c) 2004 Alexander Djourik. All rights reserved.
FILE: Rush - Rush In Rio [CD 2].flac Size: 424804979 Hash: A1FD2ABDD01067C85E633C6750E17258 Accuracy: -m0 Conclusion: CDDA 99% Signature: 8F80C429FEC1584EEDAE16B8EA9C3064D08EE394

CUETools log

[CUETools log; Date: 28.04.2015 23:33:44; Version: 2.1.4][CTDB TOCID: 4OkdIjiPTF3kbsZHShbu0.AftvM-] found.Track | CTDB Status 1 | (77/77) Accurately ripped 2 | (77/77) Accurately ripped 3 | (77/77) Accurately ripped 4 | (77/77) Accurately ripped 5 | (77/77) Accurately ripped 6 | (77/77) Accurately ripped 7 | (76/77) Accurately ripped 8 | (76/77) Accurately ripped 9 | (77/77) Accurately ripped 10 | (77/77) Accurately ripped[AccurateRip ID: 0015cc2e-00af563b-7d0ddc0a] found.Track [ CRC | V2 ] Status 01 [52a8f163|15df09a1] (026+015/258) Accurately ripped 02 [dcce396f|72eeda11] (026+015/256) Accurately ripped 03 [57b656f6|05b9ace6] (026+015/256) Accurately ripped 04 [e81778df|455e55a1] (026+015/257) Accurately ripped 05 [075b9de3|b1bb99e4] (026+015/256) Accurately ripped 06 [400c042b|5841cf89] (026+015/256) Accurately ripped 07 [d854690e|5301c44e] (026+015/258) Accurately ripped 08 [3264337c|87896ad7] (026+015/254) Accurately ripped 09 [9b01cf18|bc2e007c] (026+014/254) Accurately ripped 10 [67e6bb0d|6247ab03] (024+013/247) Accurately rippedOffsetted by -664: 01 [2ce71c78] (034/258) Accurately ripped 02 [75e4ee3f] (034/256) Accurately ripped 03 [72750db3] (034/256) Accurately ripped 04 [538e850e] (034/257) Accurately ripped 05 [79a99141] (034/256) Accurately ripped 06 [3983b963] (034/256) Accurately ripped 07 [c3949efe] (034/258) Accurately ripped 08 [da428b8e] (034/254) Accurately ripped 09 [aa778063] (034/254) Accurately ripped 10 [29b9f851] (032/247) Accurately rippedOffsetted by -53: 01 [183aa5b4] (002/258) Accurately ripped 02 [7147131c] (002/256) Accurately ripped 03 [7b1c45c3] (002/256) Accurately ripped 04 [4afb34f1] (002/257) Accurately ripped 05 [15e2d5e7] (002/256) Accurately ripped 06 [c0d98cc9] (002/256) Accurately ripped 07 [d1a7fccd] (002/258) Accurately ripped 08 [3590fcb9] (002/254) Accurately ripped 09 [fd6a9241] (002/254) Accurately ripped 10 [e955bf42] (002/247) Accurately rippedOffsetted by 141: 01 [43c5ffa8] (097/258) Accurately ripped 02 [d1a73542] (096/256) Accurately ripped 03 [191a35ce] (096/256) Accurately ripped 04 [25ce2ebb] (097/257) Accurately ripped 05 [2e13a71a] (096/256) Accurately ripped 06 [788651cd] (096/256) Accurately ripped 07 [763d28c5] (096/258) Accurately ripped 08 [adcab48e] (094/254) Accurately ripped 09 [cf51b2ee] (094/254) Accurately ripped 10 [42b64cf8] (093/247) Accurately ripped
Track Peak [ CRC32 ] [W/O NULL] [ LOG ] -- 99,4 [92FA009C] [909A83FD] CRC32 01 98,8 [D2EDC7FD] [97959EB8] 02 98,9 [16FAB07E] [47FD7475] 03 99,3 [84BBBC0E] [99435AEE] 04 98,9 [E1C53C12] [575B3E0D] 05 99,0 [17EBDCD7] [912482AB] 06 98,9 [9DA7CB8A] [59E8314D] 07 99,4 [C7AE50B7] [B9204C5E] 08 99,4 [C8AA6182] [CEE97C4D] 09 96,7 [A63C45AD] [40766FF2] 10 99,4 [0917BAB4] [EFF66487]

Disc Three (00:43:28)

01. Limelight 04:29
02. La Villa Strangiato (Instrumental) 10:05
03. The Spirit of Radio 05:28
04. By-Tor and the Snow Dog (Instrumental) 04:34
05. Cygnus X-1 03:12
06. Working Man 05:48
The Board Bootlegs:
07. Between Sun & Moon (Board Bootleg recorded at Phoenix, AZ) (Lee, Lifeson, Peart, Dubois) 04:51
08. Vital Signs (Board Bootleg recorded at Quebec City, PQ) 04:59
All Songs Written By Geddy Lee, Alex Lifeson & Neil Peart, except where noted.

Лог создания рипа

Exact Audio Copy V1.0 beta 1 from 15. November 2010
EAC extraction logfile from 25. November 2014, 16:49
Rush / Rush in Rio (CD 3)
Used drive : MATSHITADVD-RAM UJ8A0AS Adapter: 0 ID: 1
Read mode : SecureUtilize accurate stream : YesDefeat audio cache : YesMake use of C2 pointers : No
Read offset correction : 102Overread into Lead-In and Lead-Out : NoFill up missing offset samples with silence : YesDelete leading and trailing silent blocks : NoNull samples used in CRC calculations : YesUsed interface : Native Win32 interface for Win NT & 2000
Used output format : Internal WAV RoutinesSample format : 44.100 Hz; 16 Bit; Stereo
TOC of the extracted CD
Track | Start | Length | Start sector | End sector --------------------------------------------------------- 1 | 0:00.00 | 4:29.07 | 0 | 20181 2 | 4:29.07 | 10:05.03 | 20182 | 65559 3 | 14:34.10 | 5:28.60 | 65560 | 90219 4 | 20:02.70 | 4:34.57 | 90220 | 110826 5 | 24:37.52 | 3:12.00 | 110827 | 125226 6 | 27:49.52 | 5:48.30 | 125227 | 151356 7 | 33:38.07 | 4:51.30 | 151357 | 173211 8 | 38:29.37 | 4:59.00 | 173212 | 195636
Range status and errors
Selected range
Filename C:\Users\Alex\Music\Rush - Rush in Rio (CD 3).wav
Peak level 99.4 % Extraction speed 0.1 X Range quality 100.0 % Test CRC F6F2F43D Copy CRC F6F2F43D Copy OK
No errors occurred
AccurateRip summary
Track 1 accurately ripped (confidence 28) [8B31D587]Track 2 accurately ripped (confidence 28) [80DDC3FC]Track 3 accurately ripped (confidence 28) [872A8B55]Track 4 accurately ripped (confidence 28) [1B813696]Track 5 accurately ripped (confidence 28) [18EF9CBC]Track 6 accurately ripped (confidence 28) [A582E89E]Track 7 accurately ripped (confidence 28) [67217953]Track 8 accurately ripped (confidence 28) [3E0DDFB6]
All tracks accurately ripped
End of status report
==== Log checksum 59608064F7EB7A878FE67BE5CD430409E2A332A160A4CDAAFE02CAE95B8FAD5A ====

Содержание индексной карты (.CUE)

REM GENRE RockREM DATE 2003REM DISCID 570A3008REM COMMENT "ExactAudioCopy v1.0b1"PERFORMER "Rush"TITLE "Rush in Rio (CD 3)"FILE "Rush - Rush in Rio (CD 3).flac" WAVE TRACK 01 AUDIO TITLE "Limelight" PERFORMER "Rush" INDEX 01 00:00:00 TRACK 02 AUDIO TITLE "La Villa Strangiato" PERFORMER "Rush" INDEX 00 04:23:47 INDEX 01 04:29:07 TRACK 03 AUDIO TITLE "The Spirit of Radio" PERFORMER "Rush" INDEX 01 14:34:10 TRACK 04 AUDIO TITLE "By-Tor and the Snow Dog" PERFORMER "Rush" INDEX 00 19:32:55 INDEX 01 20:02:70 TRACK 05 AUDIO TITLE "Cygnus X-1" PERFORMER "Rush" INDEX 01 24:37:52 TRACK 06 AUDIO TITLE "Working Man" PERFORMER "Rush" INDEX 01 27:49:52 TRACK 07 AUDIO TITLE "Between Sun & Moon (Board Bootleg recorded at Phoenix, AZ)" PERFORMER "Rush" INDEX 00 33:23:27 INDEX 01 33:38:07 TRACK 08 AUDIO TITLE "Vital Signs (Board Bootleg recorded at Quebec City, PQ)" PERFORMER "Rush" INDEX 00 38:26:35 INDEX 01 38:29:37

Лог проверки качества

-----------------------
DON'T MODIFY THIS FILE
-----------------------
PERFORMER: auCDtect Task Manager, ver. 1.5.1RC4 build 1.5.1.5Copyright (c) 2008-2010 y-soft. All rights reservedhttp://y-soft.org
ANALYZER: auCDtect: CD records authenticity detector, version 0.8.2Copyright (c) 2004 Oleg Berngardt. All rights reserved.Copyright (c) 2004 Alexander Djourik. All rights reserved.
FILE: Rush - Rush in Rio (CD 3).flac Size: 318582500 Hash: F411957D2F0703261194C5047881D015 Accuracy: -m0 Conclusion: CDDA 100% Signature: 0CA2A6BBB866B30C2DA7B5CE78C9BAE6657B773A

CUETools log

[CUETools log; Date: 28.04.2015 23:34:03; Version: 2.1.4][CTDB TOCID: vthMpwkmWm7O9dNEoSvLKkStruU-] found.Track | CTDB Status 1 | (77/77) Accurately ripped 2 | (76/77) Accurately ripped 3 | (76/77) Accurately ripped 4 | (76/77) Accurately ripped 5 | (76/77) Accurately ripped 6 | (76/77) Accurately ripped 7 | (77/77) Accurately ripped 8 | (77/77) Accurately ripped[AccurateRip ID: 000e397e-005d38a6-570a3008] found.Track [ CRC | V2 ] Status 01 [8b31d587|57bf809d] (057+030/262) Accurately ripped 02 [80ddc3fc|05cf14d4] (057+030/259) Accurately ripped 03 [872a8b55|185a35c5] (057+030/262) Accurately ripped 04 [1b813696|c64f543e] (057+030/262) Accurately ripped 05 [18ef9cbc|c81146d6] (056+030/260) Accurately ripped 06 [a582e89e|46fa2ffa] (057+030/258) Accurately ripped 07 [67217953|78c09d5a] (057+030/261) Accurately ripped 08 [3e0ddfb6|4d3b1f92] (054+030/257) Accurately rippedOffsetted by -664: 01 [c2b1a35b] (003/262) Accurately ripped 02 [d0217ec3] (002/259) Accurately ripped 03 [f3d5aa02] (003/262) Accurately ripped 04 [36fafd29] (003/262) Accurately ripped 05 [65cc770a] (003/260) Accurately ripped 06 [77fcb525] (003/258) Accurately ripped 07 [c86c1d33] (003/261) Accurately ripped 08 [dd390736] (003/257) Accurately rippedOffsetted by -53: 01 [bea2b26d] (002/262) Accurately ripped 02 [cb6f5095] (002/259) Accurately ripped 03 [eaa7a830] (002/262) Accurately ripped 04 [da0481ca] (002/262) Accurately ripped 05 [4674d36d] (002/260) Accurately ripped 06 [33ffa08c] (002/258) Accurately ripped 07 [50d2ff77] (002/261) Accurately ripped 08 [7c7e6d46] (002/257) Accurately rippedOffsetted by 141: 01 [150988c8] (092/262) Accurately ripped 02 [9c91e9e6] (093/259) Accurately ripped 03 [9b4530b4] (093/262) Accurately ripped 04 [a145f4bb] (094/262) Accurately ripped 05 [59c89308] (093/260) Accurately ripped 06 [e21c58de] (092/258) Accurately ripped 07 [4b87fc4f] (093/261) Accurately ripped 08 [62cf1ea6] (093/257) Accurately ripped
Track Peak [ CRC32 ] [W/O NULL] [ LOG ] -- 99,4 [F6F2F43D] [E200C4DF] CRC32 01 99,2 [DB0DB69C] [7634C5E2] 02 98,7 [C950A7C6] [8FD51455] 03 99,4 [497C9CEE] [273CAF1F] 04 99,1 [23C69C09] [835337CF] 05 99,1 [B3915B29] [A2FFF5A0] 06 99,1 [AC245C97] [AE775B31] 07 96,9 [E6700582] [0F20FFF9] 08 96,8 [94B21339] [42125ED4]
Доп. информация

Состав

Geddy Lee - Vocals, bass and acoustic guitars, synthesizers
Alex Lifeson - Electric and acoustic guitars, backing vocals
Neil Peart - Drums, percussion

Об исполнителе

Set for production as a live DVD from the Vapour Trails tour, the audio from Rush in Rio clearly stands as a startling historical and musical document. The live mix is simply superb and reveals the show as it happened, without overdubs or DAT splices. The band played in front of their second-largest crowd ever, 40,000 people on the final night of the tour. (The largest was 60,000-plus the night before in Sao Paulo in the rain.) Covering three CDs, this is one of those documents that can make a punter wonder why he ever doubted the glory, majesty, and heavy, overblown, pretentious rock power of Rush. Opening with thunderous crowd noise, "Tom Sawyer" -- with complete audience participation from the git -- it is somehow awe-inspiring to hear 40,000 people singing the song with Geddy Lee. These people are so crazy; they aren't left out of the mix because they couldn't be! But it works. There was no soundcheck that night due to production delays in the arena. This is the sound of a band going for it in spite of everything and on the wing -- and the sound, very live, very real, extremely dynamic -- and not only do they pull it off; they issue their best live outing ever. Seeing Rush live can be an experience, but only those people in Rio saw them like this: far from complacent veteran rock stars, they musically push their own envelopes to the breaking point and goad each other onto ever greater intensity. Lee's bass playing has never been this ferocious, so aggressive and driving -- on a live album anyway. Neil Peart pushes the entire band with his polyrhythmic assault and overdriven flourishes and fills; knowing this is the last date, he gives it all up in every single track. And Alex Lifeson, ever the band player, is, on this night anyway, simply the greatest arena rock guitarist in the world. The program ranges over the band's entire recorded output. The majority of the material comes from Farewell to Kings and after, though "Working Man," "2112," and a medley of "By-Tor and the Snow Dog" and "Cygnus X-1" are present here. Versions of "Roll the Bones," "The Big Money," "One Little Victory," "Ghost Rider," "Red Sector A," and "La Villa Strangiato" are given something like their definitive reads. Again, on well-known tracks like "Closer to the Heart," "Free Will," and "Spirit of Radio," the crowd participation would normally be off-putting. In this context, however, it is an asset. One can hear how this adulation and frenzy literally feeds the band, forcing the issue and making these breathtaking performances. To round out the encores on disc three Rush has included "board bootlegs" of "Between Sun & Moon" and "Vital Signs" that are more than worthy performances. They were taken from shows in Phoenix and Quebec. For those for whom Rush is a secret and guilty pleasure, it's time to indulge it openly by playing this for friends who erroneously insist that Sonic Youth or Strokes concert bootlegs are the epitome of "big-label live rock." For the faithful, you'll know. This one is bloody great.
http://www.allmusic.com/album/release/rush-in-rio-mr0000233908

Back, Matrix, Spectrogram


Other forum [Profile] [PM]
Similar theme
Forum Topic Author Torrent Replies Last Post
./templates/default/images/folder_dl.gif Metal (Progressive Thrash Metal) Mekong Delta - Дискография 19 CD, (обновление 23-02-14), FLAC (image + .cue), lossless Omen
0 | 1

0 | 519

0

2014-02-23 11:00
Omen Latest
./templates/default/images/folder_dl.gif Rock (Progressive Rock) Mostly Autumn - Dressed in Voices (Limited Edition - 2CD) - 2014, MP3, 320 kbps Omen
1 | 0

0 | 2150

19

2015-04-29 21:00
Omen Latest
./templates/default/images/folder_dl.gif Metal (Progressive Metal) [CD] Leprous - The Congregation (Limited Edition) - 2015, FLAC (tracks+.cue), lossless Omen
0 | 1

0 | 2627

17

2015-05-21 00:05
Omen Latest
./templates/default/images/folder_dl.gif House, Techno, Hardcore, Hardstyle, Jumpstyle (Progressive House, Leftfield, Electro, Techno) Leftfield - Alternative Light Source - 2015, MP3, 320 kbps Omen
1 | 0

0 | 1022

16

2015-06-05 18:07
Omen Latest
./templates/default/images/folder_dl.gif Rock (Progressive Rock) Apogee - The Art Of Mind - 2015, MP3, 320 kbps Omen
0 | 1

0 | 952

9

2015-06-25 21:00
Omen Latest
./templates/default/images/folder_dl.gif Rock (Progressive Rock) This Oceanic Feeling - Universal Mind - 2015, MP3, 320 kbps Omen
1 | 0

0 | 1410

13

2015-07-01 12:00
Omen Latest
./templates/default/images/folder_dl.gif Rock (Progressive Rock/Blues Rock) David Gilmour - Дискография 1978-2015 (22 релиза), MP3, 320 kbps Omen
1 | 0

0 | 2489

14

2015-09-17 15:43
Omen Latest
./templates/default/images/folder_dl.gif Metal (Progressive/Power Metal) [CD] Pagan\'s Mind - Full Circle (Live At Center Stage) 2015 (2CD), FLAC (tracks+.cue), lossless Omen
0 | 1

0 | 1898

3

2015-10-19 00:06
Omen Latest
./templates/default/images/folder_dl.gif Rock (Progressive Rock) DC Sound Collective - A Memory of Errors Vol. 2 - 2015, MP3, 320 kbps Omen
0 | 1

0 | 578

3

2015-12-01 12:00
Omen Latest
./templates/default/images/folder_dl.gif Rock (Progressive Rock) [CD] Manfred Mann\'s Earth Band - Return To The Better - 2015, FLAC (tracks+.cue), lossless Omen
1 | 0

0 | 3168

22

2015-12-16 18:32
Omen Latest
Display posts from previous:    
Reply to topic

The time now is: Today 13:09

All times are GMT + 3 Hours



You cannot post new topics in this forum
You cannot reply to topics in this forum
You cannot edit your posts in this forum
You cannot delete your posts in this forum
You cannot vote in polls in this forum
You cannot attach files in this forum
You cannot download files in this forum