Сегодня идет свободное скачивание без начисления Download

Контрабанда / Contraband [ Бальтасар Кормакур (2012) боевик, триллер, драма, криминал , BDRip 1080p ]

Ответить на тему
 
Автор
Сообщение

Delia ®

Пол:

Стаж: 8 лет 7 месяцев

Сообщений: 1822

Торрент-статистика

Пост 26-Апр-2012 08:39

[Цитировать]

Контрабанда / Contraband«Большой куш. Крутая команда. Смертельный риск.»--
Год выпуска: 2012
Страна: США , Франция , Великобритания
Жанр: боевик, триллер, драма, криминал, ...
Продолжительность: 01:49:38
Перевод: Профессиональный (дублированный)
Субтитры: Russian, English (srt)
Режиссер: Бальтасар Кормакур
Сценарий: Аарон Гузиковский, Арнальдур Ингридасон, Оускар Йоунассон
Продюсер: Тим Беван, Эрик Феллнер, Бальтасар Кормакур, ...
Оператор: Бэрри Экройд
Композитор: Клинтон Шотер
Художник: Тони Фаннинг, Дэннис Брэдфорд, Дженни Иген, ...
Монтаж: Элизабет Рональдсдоттир- В ролях: Марк Уолберг (Mark Wahlberg), Кейт Бекинсейл (Kate Beckinsale), Бен Фостер (Ben Foster), Джованни Рибизи (Giovanni Ribisi), Калеб Лэндри Джонс (Caleb Landry Jones), Дж.К. Симмонс (J.K. Simmons), Лаки Джонсон (Lucky Johnson), Диего Луна (Diego Luna), Роберт Уолберг (Robert Wahlberg), Джейсон Митчел (Jason Mitchell), Пол ЛеБланк (Paul LeBlanc), Лукас Хаас (Lukas Haas), Эмбер Гайани (Amber Gaiennie), Кент Джуд Бернард (Kent Jude Bernard), Дэвид О’Хара (David O'Hara), Джейсон Скотт (Jackson Beals), Жаклин Флеминг (Jaqueline Fleming), Коннор Хилл (Connor Hill), Брюс МакДэниэл (Bryce McDaniel), Джон Уилмот (John Wilmot)
Описание: Мир контрабандистов — это большие ставки и огромный риск. Cтоит оступиться лишь раз, и тебя ждет смерть. В этом мире Крис был лучшим, его называли Гудини, но он вышел из игры, женился и начал новую жизнь. К несчастью, Энди, друг Криса, провалил одно дело. Теперь платить по счетам придется обоим. У них есть всего две недели на то, чтобы доставить из Панамы в США 15 миллионов фальшивых долларов, разделенных на 4 партии, каждая размером с Мини Купер. Не успеют — они знают правила...-Рейтинг MPAA: -- --Качество: BDRip1080р
Формат: MKV
Видео кодек: H.264 (AVC)
Аудио кодеk: AC3
Видео: 1920x816 (2.35:1), 23.976 fps, AVC, 9 613 Kbps
Аудио: AC3, 384 Kbps, 48.0 KHz, 6 ch RUS Dub ( BD EUR)

Отдельно на народ.ру:
English, 384 Кбит/сек, 48,0 КГц, 16 бит, 6 каналов, AC-3
Russian, 755 Кбит/сек, 48,0 КГц, 24 бит, 6 каналов, DTS

МедиаИнфо

Код:
Общее
Уникальный идентификатор         : 214314864560507534009091096775253838202 (0xA13B8AA0F3CBC8C4A486832D7074497A)
Полное имя                       : E:\торрент\Contraband .2012. 1080p .mkv
Формат                           : Matroska
Размер файла                     : 7,65 Гбайт
Продолжительность                : 1 ч. 49 м.
Общий поток                      : 9988 Кбит/сек
Дата кодирования                 : UTC 2012-05-25 04:54:02
Программа кодирования            : mkvmerge v5.4.0 ('Piper') built on Mar 10 2012 13:34:39
Библиотека кодирования           : libebml v1.2.3 + libmatroska v1.3.0
Видео
Идентификатор                    : 1
Формат                           : AVC
Формат/Информация                : Advanced Video Codec
Профиль формата                  : [email protected]
Параметр CABAC формата           : Да
Параметр ReFrames формата        : 5 кадров
Идентификатор кодека             : V_MPEG4/ISO/AVC
Продолжительность                : 1 ч. 49 м.
Битрейт                          : 9613 Кбит/сек
Ширина                           : 1920 пикс.
Высота                           : 816 пикс.
Соотношение сторон               : 2,35:1
Частота кадров                   : 23,976 кадр/сек
Цветовое пространство            : YUV
Подвыборка цветности             : 4:2:0
Битовая глубина                  : 8 бит
Тип развёртки                    : Прогрессивная
Бит/(Пиксели*Кадры)              : 0.256
Размер потока                    : 7,20 Гбайт (94%)
Библиотека кодирования           : x264 core 122 r2184 5c85e0a
Настройки программы              : cabac=1 / ref=5 / deblock=1:-3:-3 / analyse=0x3:0x113 / me=umh / subme=11 / psy=1 / psy_rd=1.00:0.15 / mixed_ref=1 / me_range=48 / chroma_me=1 / trellis=2 / 8x8dct=1 / cqm=0 / deadzone=21,11 / fast_pskip=0 / chroma_qp_offset=0 / threads=6 / sliced_threads=0 / nr=0 / decimate=0 / interlaced=0 / bluray_compat=0 / constrained_intra=0 / bframes=10 / b_pyramid=2 / b_adapt=2 / b_bias=0 / direct=3 / weightb=1 / open_gop=0 / weightp=2 / keyint=240 / keyint_min=23 / scenecut=40 / intra_refresh=0 / rc=2pass / mbtree=0 / bitrate=9613 / ratetol=1.0 / qcomp=0.70 / qpmin=0 / qpmax=69 / qpstep=4 / cplxblur=20.0 / qblur=0.5 / ip_ratio=1.40 / pb_ratio=1.30 / aq=2:0.90
Язык                             : English
Основные цвета                   : BT.709-5, BT.1361, IEC 61966-2-4, SMPTE RP177
Характеристики трансфера         : BT.709-5, BT.1361
Коэффициенты матрицы             : BT.709-5, BT.1361, IEC 61966-2-4 709, SMPTE RP177
Аудио
Идентификатор                    : 2
Формат                           : AC-3
Формат/Информация                : Audio Coding 3
Расширение режима                : CM (complete main)
Идентификатор кодека             : A_AC3
Продолжительность                : 1 ч. 49 м.
Вид битрейта                     : Постоянный
Битрейт                          : 384 Кбит/сек
Каналы                           : 6 каналов
Расположение каналов             : Front: L C R, Side: L R, LFE
Частота                          : 48,0 КГц
Битовая глубина                  : 16 бит
Метод сжатия                     : С потерями
Размер потока                    : 301 Мбайт (4%)
Заголовок                        : BD EUR
Язык                             : Russian
Текст #1
Идентификатор                    : 3
Формат                           : UTF-8
Идентификатор кодека             : S_TEXT/UTF8
Идентификатор кодека/Информация  : UTF-8 Plain Text
Язык                             : Russian
Текст #2
Идентификатор                    : 4
Формат                           : UTF-8
Идентификатор кодека             : S_TEXT/UTF8
Идентификатор кодека/Информация  : UTF-8 Plain Text
Заголовок                        : FORCED
Язык                             : Russian
Текст #3
Идентификатор                    : 5
Формат                           : UTF-8
Идентификатор кодека             : S_TEXT/UTF8
Идентификатор кодека/Информация  : UTF-8 Plain Text
Заголовок                        : NEMORMATIV
Язык                             : Russian
Текст #4
Идентификатор                    : 6
Формат                           : UTF-8
Идентификатор кодека             : S_TEXT/UTF8
Идентификатор кодека/Информация  : UTF-8 Plain Text
Язык                             : English
Меню
00:00:00.000                     : en:Chapter 01
00:08:26.255                     : en:Chapter 02
00:14:46.260                     : en:Chapter 03
00:19:12.860                     : en:Chapter 04
00:24:52.365                     : en:Chapter 05
00:29:12.625                     : en:Chapter 06
00:34:39.744                     : en:Chapter 07
00:38:56.375                     : en:Chapter 08
00:45:36.942                     : en:Chapter 09
00:52:17.759                     : en:Chapter 10
00:59:56.092                     : en:Chapter 11
01:05:31.344                     : en:Chapter 12
01:10:03.991                     : en:Chapter 13
01:16:15.112                     : en:Chapter 14
01:21:17.372                     : en:Chapter 15
01:25:34.045                     : en:Chapter 16
01:30:15.910                     : en:Chapter 17
01:35:26.887                     : en:Chapter 18
01:39:01.143                     : en:Chapter 19
01:44:32.099                     : en:Chapter 20
01:49:38.196                     : en:Chapter 21


Скриншоты

     
     

_________________
Человек – это канат, натянутый между животным и сверхчеловеком, – канат над пропастью.
В человеке ценно то, что он мост, а не цель. Фридрих Ницше
Вне форума [Профиль] [ЛС]

Delia ®

Пол:

Стаж: 8 лет 7 месяцев

Сообщений: 1822

Торрент-статистика

Пост 25-Май-2012 09:20 (спустя 29 дней)

[Цитировать]

Замена дорожки на лицензионную.

_________________
Человек – это канат, натянутый между животным и сверхчеловеком, – канат над пропастью.
В человеке ценно то, что он мост, а не цель. Фридрих Ницше
Вне форума [Профиль] [ЛС]
Показать сообщения:    
Ответить на тему

Текущее время: Сегодня 06:14

Часовой пояс: GMT + 3



Вы не можете начинать темы
Вы не можете отвечать на сообщения
Вы не можете редактировать свои сообщения
Вы не можете удалять свои сообщения
Вы не можете голосовать в опросах
Вы не можете прикреплять файлы к сообщениям
Вы не можете скачивать файлы