Сегодня идет свободное скачивание без начисления Download

Гремлины/ Gremlins (1984-1990) (Дилогия) DVDRip

Ответить на тему
 
Автор
Сообщение

Omen ®

Стаж: 4 года 1 месяц

Сообщений: 194390

Торрент-статистика

Пост 29-Апр-2012 12:47

[Цитировать]

Гремлины/ Gremlins (1984-1990) (Дилогия) DVDRip- --Гремлины/ Gremlins (1984) DVDRip--Русское название: Гремлины
Оригинальное название: Gremlins
Год выпуска: 1984
Жанр: Ужасы, Фантастика, Комедия-Описание фильма:
Жизнь течёт своим чередом в маленьком американском городе, где живёт Билли Пельцер (Зак Гэллиган): он учится, работает в банке, спасает свою собаку от происков злобной старухи миссис Дигл (Полли Холлидей), влюбляется в красавицу-сотрудницу Кейт (Фиби Кейтс), подрабатывающую в местном баре «У Доррис».
Но всё меняется, когда отец Билла, горе-изобретатель Ренделл Пельцер (Хойт Экстон) дарит на Рождество сыну забавное существо под названием могвай, которое мужчина купил в маленьком магазинчике в Китайском квартале. Пельцеры дают могваю кличку Гизмо. Но бывший владелец зверушки предупредил, что необходимо соблюдать три условия: первое — не включать яркий свет; второе — нельзя, чтобы на Гизмо попадала вода и третье — самое важное — ни за что, никогда не кормить его после полуночи. Тем не менее, Билли случайно намочил Гизмо и он размножился. Потомки Гизмо оказались очень злыми, однажды они вырвали контактные провода из часов, в результате Билли случайно покормил их после полуночи (часы показывали «до»). Могваи покрываются коконами и очень скоро превращаются в злых Гремлинов. Билли должен вместе с Гизмо спасти город, иначе Гремлины сотрут весь город с его населением в порошок.

Режиссер: Джо Данте
Продюсеры: Майкл Финнелл, Кэтлин Кеннеди, Стивен Спилберг.
Актеры: Зак Гэллиган, Фиби Кейтс, Хойт Экстон, Френсис Ли МакКейн, Кей Люк, Кори Фельдман, Полли Холлидей, Дик Миллер, Скотт Брейди, Джеки Джозеф, Джон Луи, Дон Стил, Сьюзэн Бургесс, Арни Мур, Гарри Кэри мл., Джадж Райнхолд
Продолжительность: 01:46:15
Перевод: Дублированный
Дата мировой премьеры: 8 июня 1984- -Видеокодек: Xvid
Битрейт видео: ~1549 Кбит/с
Размер кадра: 720 х 400
Качество видео: DVDRip
Аудиокодек: AC3 5.1
Битрейт аудио: 384 Кбит/ск-

MediaInfo

Код:
Общее
Полное имя                       : E:\Gremliny\Gremliny.1.1984.XviD.DVDRip..avi
Формат                           : AVI
Формат/Информация                : Audio Video Interleave
Размер файла                     : 1,44 Гбайт
Продолжительность                : 1 ч. 46 м.
Общий поток                      : 1942 Кбит/сек
Программа кодирования            : VirtualDubMod 1.5.10.2 (build 2540/release)
Библиотека кодирования           : VirtualDubMod build 2540/release
Видео
Идентификатор                    : 0
Формат                           : MPEG-4 Visual
Профиль формата                  : Advanced [email protected]
Параметр BVOP формата            : 1
Параметр QPel формата            : Нет
Параметр GMC формата             : Без точки перехода
Параметр матрицы формата         : Default (MPEG)
Режим смешивания                 : Сжатый битовый поток
Идентификатор кодека             : XVID
Идентификатор кодека/Подсказка   : XviD
Продолжительность                : 1 ч. 46 м.
Битрейт                          : 1549 Кбит/сек
Ширина                           : 720 пикс.
Высота                           : 400 пикс.
Соотношение сторон               : 16:9
Частота кадров                   : 23,976 кадр/сек
Цветовое пространство            : YUV
Подвыборка цветности             : 4:2:0
Битовая глубина                  : 8 бит
Тип развёртки                    : Прогрессивная
Метод сжатия                     : С потерями
Бит/(Пиксели*Кадры)              : 0.224
Размер потока                    : 1,15 Гбайт (80%)
Библиотека кодирования           : XviD 1.2.1 (UTC 2008-12-04)
Аудио
Идентификатор                    : 1
Формат                           : AC-3
Формат/Информация                : Audio Coding 3
Расширение режима                : CM (complete main)
Идентификатор кодека             : 2000
Продолжительность                : 1 ч. 46 м.
Вид битрейта                     : Постоянный
Битрейт                          : 384 Кбит/сек
Каналы                           : 6 каналов
Расположение каналов             : Front: L C R, Side: L R, LFE
Частота                          : 48,0 КГц
Битовая глубина                  : 16 бит
Метод сжатия                     : С потерями
Размер потока                    : 292 Мбайт (20%)
Выравнивание                     : Разделение по промежуткам
Продолжительность промежутка     : 42  мс. (1,00 видеокадр)
Время предзагрузки промежутка    : 500 ms
-Скриншоты:
       
--Гремлины 2: Новенькая партия / Gremlins 2: The New Batch (1990) DVDRip-
Русское название: Гремлины 2: Новенькая партия
Оригинальное название: Gremlins 2: The New Batch
Год выпуска: 1990
Жанр: Ужасы, Фантастика, Комедия
Описание фильма:
Спустя шесть лет после жутких событий, произошедших в их родном городке, Билли Пельцер (Зак Гэллиган) и его невеста Кейт (Фиби Кейтс) переехали в Нью-Йорк, где работают в крупной компании «Клэмп», расположенной в небоскребе на Манхэттене. Многопрофильная фирма, возглавляемая Дениэлом Клэмпом (Джон Гловер) оснащена по последнему слову техники. После смерти старого китайца в лабораторию компании попадает могвай Гизмо. Узнав об этом, Билли пытается спасти своего друга, но события складываются так, что Гремлины вновь оказались на свободе и теперь уже огромному Нью-Йорку грозят неминуемые беды.-Режиссер: Джо Данте
Продюсеры: Рик Бэйкер, Майкл Финнелл, Кэтлин Кеннеди, Френк Маршалл, Стивен Спилберг.
Актеры: Зак Галлиган, Фиби Кэйтс, Джон Гловер, Роберт Проски, Роберт Пикардо, Кристофер Ли, Хэвилэнд Моррис, Дик Миллер, Джеки Джозеф, Гедде Ватанабе, Кай Люк, Кэтлин Фриман, Дон Стэнтон, Дон Стэнтон, Шоун Нельсон, Арчи Хан, Лесли Нил, Рон Фасслер, Тайм Уинтерс, Хизер Хаазе.-Продолжительность: 01:46:22
Перевод: Дублированный
Дата мировой премьеры: 15 июня 1990- -Видеокодек: Xvid
Битрейт видео: ~1500 Кбит/сек
Размер кадра: 720 х 400
Качество видео: DVDRip
Аудиокодек: AC3 5.1
Битрейт аудио: 448 Кбит/сек-

MediaInfo

Код:
Общее
Полное имя                       : E:\Gremliny\Gremliny.2.Novenkaja.partija.1990.XviD.DVDRip.avi
Формат                           : AVI
Формат/Информация                : Audio Video Interleave
Размер файла                     : 1,45 Гбайт
Продолжительность                : 1 ч. 46 м.
Общий поток                      : 1958 Кбит/сек
Программа кодирования            : VirtualDubMod 1.5.10.2 (build 2540/release)
Библиотека кодирования           : VirtualDubMod build 2540/release
Видео
Идентификатор                    : 0
Формат                           : MPEG-4 Visual
Профиль формата                  : Advanced [email protected]
Параметр BVOP формата            : 2
Параметр QPel формата            : Нет
Параметр GMC формата             : Без точки перехода
Параметр матрицы формата         : Default (MPEG)
Режим смешивания                 : Сжатый битовый поток
Идентификатор кодека             : XVID
Идентификатор кодека/Подсказка   : XviD
Продолжительность                : 1 ч. 46 м.
Битрейт                          : 1500 Кбит/сек
Ширина                           : 720 пикс.
Высота                           : 400 пикс.
Соотношение сторон               : 16:9
Частота кадров                   : 23,976 кадр/сек
Цветовое пространство            : YUV
Подвыборка цветности             : 4:2:0
Битовая глубина                  : 8 бит
Тип развёртки                    : Прогрессивная
Метод сжатия                     : С потерями
Бит/(Пиксели*Кадры)              : 0.217
Размер потока                    : 1,11 Гбайт (77%)
Библиотека кодирования           : XviD 1.2.1 (UTC 2008-12-04)
Аудио
Идентификатор                    : 1
Формат                           : AC-3
Формат/Информация                : Audio Coding 3
Расширение режима                : CM (complete main)
Идентификатор кодека             : 2000
Продолжительность                : 1 ч. 46 м.
Вид битрейта                     : Постоянный
Битрейт                          : 448 Кбит/сек
Каналы                           : 6 каналов
Расположение каналов             : Front: L C R, Side: L R, LFE
Частота                          : 48,0 КГц
Битовая глубина                  : 16 бит
Метод сжатия                     : С потерями
Размер потока                    : 341 Мбайт (23%)
Выравнивание                     : Разделение по промежуткам
Продолжительность промежутка     : 42  мс. (1,00 видеокадр)
Время предзагрузки промежутка    : 500 ms
-Скриншоты:
       
--
Вне форума [Профиль] [ЛС]
Показать сообщения:    
Ответить на тему

Текущее время: Сегодня 17:23

Часовой пояс: GMT + 3



Вы не можете начинать темы
Вы не можете отвечать на сообщения
Вы не можете редактировать свои сообщения
Вы не можете удалять свои сообщения
Вы не можете голосовать в опросах
Вы не можете прикреплять файлы к сообщениям
Вы не можете скачивать файлы