Сегодня идет свободное скачивание без начисления Download

Двухсотлетний человек / Bicentennial Man (1999) DVDRip

Ответить на тему
 
Автор
Сообщение

Omen ®

Стаж: 4 года 1 месяц

Сообщений: 194382

Торрент-статистика

Пост 08-Май-2012 10:56

[Цитировать]

Двухсотлетний человек
Bicentennial Man
- Русское название: Двухсотлетний человек
Оригинальное название: Bicentennial Man
Год выпуска: 1999
Жанр: Фантастика, Фэнтези, Семейный
Выпущено: США / Columbia Pictures, Touchstone Pictures, 1492 Pictures, Radiant Productions, Laurence Mark Productions
-Описание фильма:
По роману Айзека Азимова. Семья приобретает робота нового поколения Эндрю. Глава семьи учит его жизни, пытаясь выбить из него запрограммированное решение проблем, научить человеческому мышлению. Эндрю много читает и совершенствуется, изменяется и отношение к нему. Без него жизнь кажется пустой и скучной. Члены семьи взрослеют, стареют, умирают, а у него нет возраста. Он умеет одеваться, как человек, рассуждать, как человек, дает дельные советы и зарабатывает деньги. Он хочет, чтобы его признали свободным.-Режиссер: Крис Коламбус
Актеры: Робин Уильямс, Эмбет Дэвидц, Сэм Нилл, Оливер Плэтт, Кирстен Уоррен, Венди Крюсон, Халли Кейт Айзенберг, Анджела Лэндис, Джон Майкл Хиггинс
-Продолжительность: 02:05:59
Перевод: Дублированный- -Видеокодек: Xvid
Битрейт видео: ~1800 kb/s
Размер кадра: 720 х 416
Качество видео: DVDRip
Аудиокодек: AC3 5.1
Битрейт аудио: 448 kb/s VBR
-

Mediainfo

Код:
General
Complete name                    : I:\Dvuhsotletnij.chelovek.1999..XviD.DVDRip-mio47.avi
Format                           : AVI
Format/Info                      : Audio Video Interleave
File size                        : 1.99 GiB
Duration                         : 2h 6mn
Overall bit rate                 : 2 258 Kbps
Writing application              : VirtualDubMod 1.5.10.3
Writing library                  : VirtualDubMod build 2550/release
Video
ID                               : 0
Format                           : MPEG-4 Visual
Format profile                   : Advanced [email protected]
Format settings, BVOP            : Yes
Format settings, QPel            : No
Format settings, GMC             : No warppoints
Format settings, Matrix          : Default (MPEG)
Codec ID                         : XVID
Codec ID/Hint                    : XviD
Duration                         : 2h 6mn
Bit rate                         : 1 800 Kbps
Width                            : 720 pixels
Height                           : 416 pixels
Display aspect ratio             : 16:9
Frame rate                       : 25.000 fps
Color space                      : YUV
Chroma subsampling               : 4:2:0
Bit depth                        : 8 bits
Scan type                        : Progressive
Compression mode                 : Lossy
Bits/(Pixel*Frame)               : 0.240
Stream size                      : 1.58 GiB (80%)
Writing library                  : XviD 1.2.1 (UTC 2008-12-04)
Audio
ID                               : 1
Format                           : AC-3
Format/Info                      : Audio Coding 3
Mode extension                   : CM (complete main)
Codec ID                         : 2000
Duration                         : 2h 5mn
Bit rate mode                    : Constant
Bit rate                         : 448 Kbps
Channel(s)                       : 6 channels
Channel positions                : Front: L C R, Side: L R, LFE
Sampling rate                    : 48.0 KHz
Bit depth                        : 16 bits
Compression mode                 : Lossy
Stream size                      : 404 MiB (20%)
Alignment                        : Split accross interleaves
Interleave, duration             : 40 ms (1.00 video frame)
Interleave, preload duration     : 500 ms
-Скриншоты:
     
     
Вне форума [Профиль] [ЛС]
Показать сообщения:    
Ответить на тему

Текущее время: Сегодня 17:38

Часовой пояс: GMT + 3



Вы не можете начинать темы
Вы не можете отвечать на сообщения
Вы не можете редактировать свои сообщения
Вы не можете удалять свои сообщения
Вы не можете голосовать в опросах
Вы не можете прикреплять файлы к сообщениям
Вы не можете скачивать файлы