Сегодня идет свободное скачивание без начисления Download

Вожди Атлантиды / Warlords of Atlantis (Кевин Коннор / Kevin Connor) DVDRip [1978, Фантастика, фэнтези, приключения, DVDRip (AVC)]

Ответить на тему
 
Автор
Сообщение

Omen ®

Стаж: 4 года 1 месяц

Сообщений: 194394

Торрент-статистика

Пост 15-Июл-2015 22:33

[Цитировать]

Вожди Атлантиды / Warlords of Atlantis «From the depth of space they came to vanish beneath the sea...»- Производство: Великобритания
Жанр: Фантастика, фэнтези, приключения
Режиссер: Кевин Коннор / Kevin Connor
Актеры: Даг МакКлёр, Питер Гилмор, Шэйн Риммер, Ли Броуди, Майкл Готхард, Хэл Галили, Джон Ратценбергер, Дерри Пауэр, Дональд Биссет, Дэниэл Мэсси
Описание:
Экспедиционный корабль отправляется на поиски таинственной Атлантиды. На борту корабля находится ученый – профессор Айткен, вплотную занимающий вопросом исчезновения цивилизации атлантов. Но во время пути их корабль атакует огромный спрут, затягивающий тонущих на глубокое дно. Там, на дне морском, путешественники обнаруживают чужестранную цивилизацию. Это и есть пропавшая Атлантида. Профессор ужасается, когда понимает, что идеалом государства у правителей этой подводной страны является фашистский режим. И команда корабля решает выбираться оттуда...

Премьера (мир): 6 июля 1978, ...
Продолжительность: 01:32:23
Качество видео: DVDRip (AVC)
Перевод: Дублированный, Авторский
Язык озвучки: Русский, Английский
Субтитры: Отсутствуют
Видео: AVC/H.264, 1008х576, 2592 Кбит/с
Аудио #1: АС3, 2 ch, 192 Кбит/с - русский дубляж (СССР)
Аудио #2:АС3, 2 ch, 192 Кбит/с - русский авторский (Ю.Живов)
Аудио #3:АС3, 2 ch, 192 Кбит/с - английский

MediaInfo:

Общее
Уникальный идентификатор : 231200370886727231851822358845670507063 (0xADEF925DD79A37C5BF940D3454E34237)
Полное имя : C:\NNM\Вожди Атлантиды\Vozhdi Atlantidy 1978 DVDRip AVC.mkv
Формат : Matroska
Версия формата : Version 1
Размер файла : 2,05 Гбайт
Продолжительность : 1 ч. 32 м.
Общий поток : 3172 Кбит/сек
Дата кодирования : UTC 2012-09-10 04:33:37
Программа кодирования : mkvmerge v2.1.0 ('Another Place To Fall') built on Aug 19 2007 13:40:07
Библиотека кодирования : libebml v0.7.7 + libmatroska v0.8.1
Видео
Идентификатор : 1
Формат : AVC
Формат/Информация : Advanced Video Codec
Профиль формата : [url=mailto:[email protected]][email protected][/url]
Параметр CABAC формата : Да
Параметр ReFrames формата : 7 кадров
Идентификатор кодека : V_MPEG4/ISO/AVC
Продолжительность : 1 ч. 32 м.
Битрейт : 2592 Кбит/сек
Ширина : 1008 пикселей
Высота : 576 пикселей
Соотношение сторон : 16:9
Частота кадров : 25,000 кадров/сек
Цветовое пространство : YUV
Субдискретизация насыщенности : 4:2:0
Битовая глубина : 8 бит
Тип развёртки : Прогрессивная
Бит/(Пиксели*Кадры) : 0.179
Размер потока : 1,63 Гбайт (80%)
Библиотека кодирования : x264 core 115 r1937 aa21558
Настройки программы : cabac=1 / ref=7 / deblock=1:-2:-2 / analyse=0x3:0x113 / me=umh / subme=7 / psy=1 / psy_rd=1.00:0.10 / mixed_ref=0 / me_range=32 / chroma_me=1 / trellis=2 / 8x8dct=1 / cqm=0 / deadzone=21,11 / fast_pskip=1 / chroma_qp_offset=-3 / threads=6 / sliced_threads=0 / nr=0 / decimate=1 / interlaced=0 / bluray_compat=0 / constrained_intra=0 / bframes=7 / b_pyramid=2 / b_adapt=2 / b_bias=0 / direct=3 / weightb=1 / open_gop=0 / weightp=0 / keyint=250 / keyint_min=25 / scenecut=40 / intra_refresh=0 / rc_lookahead=30 / rc=2pass / mbtree=1 / bitrate=2592 / ratetol=1.0 / qcomp=0.60 / qpmin=15 / qpmax=47 / qpstep=3 / cplxblur=20.0 / qblur=0.5 / ip_ratio=1.40 / aq=1:1.10
Язык : English
Default : Да
Forced : Нет
Аудио #1
Идентификатор : 2
Формат : AC-3
Формат/Информация : Audio Coding 3
Расширение режима : CM (complete main)
Идентификатор кодека : A_AC3
Продолжительность : 1 ч. 32 м.
Вид битрейта : Постоянный
Битрейт : 192 Кбит/сек
Каналы : 2 канала
Расположение каналов : Front: L R
Частота : 48,0 КГц
Битовая глубина : 16 бит
Метод сжатия : С потерями
Размер потока : 127 Мбайт (6%)
Заголовок : Дублированный (СССР)
Язык : Russian
Default : Да
Forced : Нет
Аудио #2
Идентификатор : 3
Формат : AC-3
Формат/Информация : Audio Coding 3
Расширение режима : CM (complete main)
Идентификатор кодека : A_AC3
Продолжительность : 1 ч. 32 м.
Вид битрейта : Постоянный
Битрейт : 192 Кбит/сек
Каналы : 2 канала
Расположение каналов : Front: L R
Частота : 48,0 КГц
Битовая глубина : 16 бит
Метод сжатия : С потерями
Размер потока : 127 Мбайт (6%)
Заголовок : Авторский одноголосый (Ю.Живов)
Язык : Russian
Default : Нет
Forced : Нет
Аудио #3
Идентификатор : 4
Формат : AC-3
Формат/Информация : Audio Coding 3
Расширение режима : CM (complete main)
Идентификатор кодека : A_AC3
Продолжительность : 1 ч. 32 м.
Вид битрейта : Постоянный
Битрейт : 192 Кбит/сек
Каналы : 2 канала
Расположение каналов : Front: L R
Частота : 48,0 КГц
Битовая глубина : 16 бит
Метод сжатия : С потерями
Размер потока : 127 Мбайт (6%)
Заголовок : Оригинал
Язык : English
Default : Нет
Forced : Нет
Скриншоты:        
Вне форума [Профиль] [ЛС]
Показать сообщения:    
Ответить на тему

Текущее время: Сегодня 20:57

Часовой пояс: GMT + 3



Вы не можете начинать темы
Вы не можете отвечать на сообщения
Вы не можете редактировать свои сообщения
Вы не можете удалять свои сообщения
Вы не можете голосовать в опросах
Вы не можете прикреплять файлы к сообщениям
Вы не можете скачивать файлы