Сегодня идет свободное скачивание без начисления Download

Калигула / Caligula (1979) [H.264/1080p-LQ] BDRip

Ответить на тему
 
Автор
Сообщение

Varius ®

Пол:

Стаж: 6 лет 8 месяцев

Сообщений: 3922

Откуда: Hell

Торрент-статистика

Пост 15-Май-2012 05:45

[Цитировать]

Калигула / Caligula (1979) BDRip- Русское название: Калигула
Оригинальное название: Caligula
Год выпуска: 1979
Жанр: Драма, Эротика-Описание фильма:
Будущий император Калигула Гай Юлий Цезарь Август Германик вступает в борьбу за Римский престол со своим дядей Тиберием , действуя лестью и хитростью. Постоянное ожидание расправы со стороны Тиберия окончательно подрывает и без того хрупкую психику Калигулы. Он собственноручно во время припадка Тиберия пытается его убить, но по сюжету за него убийство совершает префект преторианских когорт Квинт Невий Корд Серторий Макрон. Калигула становится Цезарем после Тиберия. Разгульная жизнь, бессмысленная жестокость, непредсказуемость и массовые конфискации имущества нобилей настраивают против Калигулы его бывших союзников.-Режиссер:
Тинто Брасс, Боб Гуччионе, Джанкарло Луи / Tinto Brass, Bob Guccione, Giancarlo Lu
Актеры:
Малкольм МакДауэлл, Тереза Энн Савой, Гуидо Маннари, Джон Гилгуд, Питер О’Тул, Джанкарло Бадесси, Бруно Бриве, Адриана Асти, Леопольдо Триесте, Паоло Боначелли-Продолжительность: 02:36:03
Перевод:
1) Многоголосый закадровый
2) Двухголосый закадровый (П.Гланц и И.Королева)
Видеокодек: MPEG-4 AVC/H.264
Битрейт видео: ~1500 Kbps
Размер кадра: 1920x976
Качество видео: BDRip
Аудиокодек: AC3 2.0
Битрейт аудио: 160 Kbps
-

Media Info

General
Unique ID : 175352055910861402681137683316898586789 (0x83EB93D8EE6B179FBEBF259A1880E0A5)
Complete name : Калигула.mkv
Format : Matroska
Format version : Version 2
File size : 1.99 GiB
Duration : 2h 36mn
Overall bit rate : 1 823 Kbps
Movie name : Caligula (rip by smithland)
Encoded date : UTC 2012-05-13 13:29:33
Writing application : mkvmerge v5.5.0 ('Healer') built on Apr 6 2012 21:43:24
Writing library : libebml v1.2.3 + libmatroska v1.3.0
Attachment : Yes
Video
ID : 1
Format : AVC
Format/Info : Advanced Video Codec
Format profile : [url=mailto:[email protected]][email protected][/url]
Format settings, CABAC : Yes
Format settings, ReFrames : 4 frames
Codec ID : V_MPEG4/ISO/AVC
Duration : 2h 36mn
Bit rate : 1 500 Kbps
Width : 1 920 pixels
Height : 976 pixels
Display aspect ratio : 1.967
Frame rate mode : Variable
Frame rate : 23.976 fps
Color space : YUV
Chroma subsampling : 4:2:0
Bit depth : 8 bits
Scan type : Progressive
Bits/(Pixel*Frame) : 0.033
Stream size : 1.60 GiB (80%)
Writing library : x264 core 112
Encoding settings : cabac=1 / ref=2 / deblock=1:-1:1 / analyse=0x3:0 / me=umh / subme=8 / psy=1 / psy_rd=1.00:0.50 / mixed_ref=0 / me_range=24 / chroma_me=1 / trellis=1 / 8x8dct=1 / cqm=0 / deadzone=21,11 / fast_pskip=1 / chroma_qp_offset=-4 / threads=6 / sliced_threads=0 / nr=0 / decimate=0 / interlaced=0 / constrained_intra=0 / bframes=2 / b_pyramid=2 / b_adapt=1 / b_bias=0 / direct=1 / weightb=0 / open_gop=0 / weightp=2 / keyint=240 / keyint_min=23 / scenecut=40 / intra_refresh=0 / rc_lookahead=40 / rc=abr / mbtree=1 / bitrate=1500 / ratetol=1.0 / qcomp=0.60 / qpmin=3 / qpmax=51 / qpstep=4 / ip_ratio=1.40 / aq=1:1.00
Language : Russian
Default : Yes
Forced : Yes
Color primaries : BT.709-5, BT.1361, IEC 61966-2-4, SMPTE RP177
Transfer characteristics : BT.709-5, BT.1361
Matrix coefficients : BT.709-5, BT.1361, IEC 61966-2-4 709, SMPTE RP177
Audio #1
ID : 2
Format : AC-3
Format/Info : Audio Coding 3
Mode extension : CM (complete main)
Format settings, Endianness : Big
Codec ID : A_AC3
Duration : 2h 36mn
Bit rate mode : Constant
Bit rate : 160 Kbps
Channel(s) : 2 channels
Channel positions : Front: L R
Sampling rate : 48.0 KHz
Bit depth : 16 bits
Compression mode : Lossy
Stream size : 179 MiB (9%)
Title : Профессиональный, многоголосый
Language : Russian
Default : Yes
Forced : No
Audio #2
ID : 3
Format : AC-3
Format/Info : Audio Coding 3
Mode extension : CM (complete main)
Format settings, Endianness : Big
Codec ID : A_AC3
Duration : 2h 36mn
Bit rate mode : Constant
Bit rate : 160 Kbps
Channel(s) : 2 channels
Channel positions : Front: L R
Sampling rate : 48.0 KHz
Bit depth : 16 bits
Compression mode : Lossy
Stream size : 179 MiB (9%)
Title : Двухголосый закадровый - П.Гланц и И.Королева
Language : Russian
Default : No
Forced : No
-Скриншоты:
       
       -

_________________

Создавая "Новую папку", не считайте себя Создателем - это право Вам дано Админом


Вне форума [Профиль] [ЛС]

BoxeR

Пол:

Стаж: 4 года 8 месяцев

Сообщений: 646

Торрент-статистика

Пост 15-Май-2012 10:35 (спустя 4 часа)

[Цитировать]

Спасибо будет интересно посмотреть, так как смотрел документальный фильм по Россия 2 вчера ночью

_________________
Вне форума [Профиль] [ЛС]
Показать сообщения:    
Ответить на тему

Текущее время: Сегодня 13:32

Часовой пояс: GMT + 3



Вы не можете начинать темы
Вы не можете отвечать на сообщения
Вы не можете редактировать свои сообщения
Вы не можете удалять свои сообщения
Вы не можете голосовать в опросах
Вы не можете прикреплять файлы к сообщениям
Вы не можете скачивать файлы