Сегодня идет свободное скачивание без начисления Download

Моё второе Я / All of Me (Карл Райнер / Carl Reiner) [1984, США, комедия, WEB-DL 720p] DVO + AVO + Sub Eng + Original Eng

Ответить на тему
 
Автор
Сообщение

Omen ®

Стаж: 4 года 1 месяц

Сообщений: 194382

Торрент-статистика

Пост 23-Июл-2015 12:02

[Цитировать]

Моё второе Я / All of Me
-Страна: США
Жанр: комедия
Год выпуска: 1984
Продолжительность: 01:31:41-Перевод 1: Профессиональный (двухголосый закадровый) Петербург-5 канал
Перевод 2: Авторский (одноголосый закадровый) Михалёв
Cубтитры: английские
Оригинальная аудиодорожка: английский-Режиссер: Карл Райнер / Carl Reiner-В ролях: Стив Мартин, Лили Томлин, Виктория Теннант, Мэдолин Смит-Осборн, Ричард Либертини, Сельма Даймонд, Джейсон Бернард, Дэна Элкар, Гэйлард Сартэйн, Эрик Кристмас-Описание:
Безумно богатая и очень капризная Эдвина Катуотер, чувствуя приближение смерти, решает воспользоваться услугами тибетского чудотворца и переместить свою душу в более молодое тело своей горничной. Проведя много лет в инвалидном кресле, она жаждет наверстать упущенное! Но во время таинства реинкарнации по нелепой случайности душа Эдвины попадает в тело адвоката Роджера Кобба, которого она невзлюбила с первой же встречи. Теперь правая часть тела принадлежит Эдвине, а Роджеру осталась левая. Только бог знает, что из этого может получится…-Сэмпл: Скачать-Тип релиза: WEB-DL 720p
Контейнер: MKV-Видео: 1280x690 (1.85:1); 3 928 Kbps; 24.000 fps; 0.189 bpp
Аудио 1: Russian; AC3; 48.0 KHz; 2ch; 192 Kbps DVO
Аудио 2: Russian; AC3; 48.0 KHz; 2ch; 192 Kbps AVO
Аудио 3: English; AAC; 48.0 KHz; 2ch; 160 Kbps

MediaInfo

Format : Matroska
Format version : Version 4 / Version 2
File size : 2.90 GiB
Duration : 1h 31mn
Overall bit rate : 4 532 Kbps
Encoded date : UTC 2015-07-23 06:58:46
Writing application : mkvmerge v8.1.0 ('Psychedelic Postcard') 64bit
Writing library : libebml v1.3.1 + libmatroska v1.4.2
Attachements : poster.jpg
DURATION : 01:30:43.660000000
NUMBER_OF_FRAMES : 1018
NUMBER_OF_BYTES : 51573
_STATISTICS_WRITING_APP : mkvmerge v8.1.0 ('Psychedelic Postcard') 64bit
_STATISTICS_WRITING_DATE_UTC : 2015-07-23 06:58:46
_STATISTICS_TAGS : BPS DURATION NUMBER_OF_FRAMES NUMBER_OF_BYTES
Video
ID : 1
Format : AVC
Format/Info : Advanced Video Codec
Format profile : [email protected]
Format settings, CABAC : No
Format settings, ReFrames : 2 frames
Codec ID : V_MPEG4/ISO/AVC
Duration : 1h 31mn
Width : 1 280 pixels
Height : 690 pixels
Display aspect ratio : 1.85:1
Frame rate mode : Constant
Frame rate : 24.000 fps
Color space : YUV
Chroma subsampling : 4:2:0
Bit depth : 8 bits
Scan type : Progressive
Language : English
Default : Yes
Forced : No
Color primaries : BT.709
Transfer characteristics : BT.709
Matrix coefficients : BT.709
Audio #1
ID : 2
Format : AC-3
Format/Info : Audio Coding 3
Mode extension : CM (complete main)
Format settings, Endianness : Big
Codec ID : A_AC3
Duration : 1h 31mn
Bit rate mode : Constant
Bit rate : 192 Kbps
Channel(s) : 2 channels
Channel positions : Front: L R
Sampling rate : 48.0 KHz
Bit depth : 16 bits
Compression mode : Lossy
Stream size : 126 MiB (4%)
Title : DVO 5 Канал
Language : Russian
Default : Yes
Forced : No
Audio #2
ID : 3
Format : AC-3
Format/Info : Audio Coding 3
Mode extension : CM (complete main)
Format settings, Endianness : Big
Codec ID : A_AC3
Duration : 1h 31mn
Bit rate mode : Constant
Bit rate : 192 Kbps
Channel(s) : 2 channels
Channel positions : Front: L R
Sampling rate : 48.0 KHz
Bit depth : 16 bits
Compression mode : Lossy
Stream size : 126 MiB (4%)
Title : AVO Михалёв
Language : Russian
Default : No
Forced : No
Audio #3
ID : 4
Format : AAC
Format/Info : Advanced Audio Codec
Format profile : LC
Codec ID : A_AAC
Duration : 1h 31mn
Channel(s) : 2 channels
Channel positions : Front: L R
Sampling rate : 48.0 KHz
Compression mode : Lossy
Language : English
Default : No
Forced : No
Text
ID : 5
Format : UTF-8
Codec ID : S_TEXT/UTF8
Codec ID/Info : UTF-8 Plain Text
Language : English
Default : No
Forced : No

Скриншоты

Вне форума [Профиль] [ЛС]

Dracula

Стаж: 3 года 1 месяц

Сообщений: 9746

Торрент-статистика

Пост 23-Июл-2015 12:28 (спустя 26 минут)

Топик был перенесен из форума Наше кино (HD Video) в форум Фильмы до 2000 года


Геннадич
 
Показать сообщения:    
Ответить на тему

Текущее время: Сегодня 20:25

Часовой пояс: GMT + 3



Вы не можете начинать темы
Вы не можете отвечать на сообщения
Вы не можете редактировать свои сообщения
Вы не можете удалять свои сообщения
Вы не можете голосовать в опросах
Вы не можете прикреплять файлы к сообщениям
Вы не можете скачивать файлы