Сегодня идет свободное скачивание без начисления Download

Годзилла снова нападает / Godzilla Rides Again / Gojira no gyakushû (Мотойоши Ода / Motoyoshi Oda) [1955, Япония, Фантастика, HDTVRip 720p] VO + Sub Eng + Original Jap

Ответить на тему
 
Автор
Сообщение

Omen ®

Стаж: 4 года 1 месяц

Сообщений: 194359

Торрент-статистика

Пост 28-Июл-2015 09:00

[Цитировать]

Годзилла снова нападает / Godzilla Rides Again / Gojira no gyakushû«Roasting Anything In Its Path!» Страна: Япония
Жанр: Фантастика
Год выпуска: 1955
Продолжительность: 01:21:37
Перевод: Любительский одноголосый закадровый
Cубтитры: английские
Оригинальная аудиодорожка: японский-Режиссер: Мотойоши Ода / Motoyoshi Oda
В ролях: Хироши Койдзуми, Сэцуко Вакаяма, Минору Тиаки, Такаси Симура, Масао Симидзу, Сейдзиро Онда, Соноскэ Савамура, Ёсио Цутия, Маюри Мокусё, Миносукэ Ямада-Описание: Как выяснилось, Годзилла, убитый кислородом-разрушителем, был не единственным своем роде. Вскоре появляется еще один Годзилла, которого на этот раз называют Гигантисом. Гигантис появляется вместе с другим монстром — Ангирусом. Гигинатис и Ангирус появляются в Осаке, где начинают сражение. После долгой и упорной борьбы Гигантис убивает Ангируса и продолжает крушить город. Вскоре люди придумывают план, как избавиться от монстра…- -Сэмпл: скачать здесь (38,7 Мб)
Тип релиза: HDTVRip 720p
Контейнер: MKV
Видео кодек: Xvid
Аудио кодек: MP3, AC3
Видео: 960x720p, 23.976 fps, xvid ~3326 kbps
Аудио 1: Русский 48 kHz, MP3 2.0, 102 kbps | Одноголосый закадровый
Аудио 2: Японский 48 kHz, AC3 2.0, 192 kbps | Оригинальный
Субтитры: английские (полные, SRT)

MediaInfo

General
Unique ID : 240678334027527554308514748801129746587 (0xB510F6072B2C72598D32A65E4175909B)
Complete name : C:\...\Godzilla.Raids.Again.1955.720p.HDTV.xvid.mkv
Format : Matroska
Format version : Version 4 / Version 2
File size : 2.11 GiB
Duration : 1h 21mn
Overall bit rate mode : Variable
Overall bit rate : 3 694 Kbps
Encoded date : UTC 2015-07-28 02:08:09
Writing application : mkvmerge v8.2.0 ('World of Adventure') 64bit
Writing library : libebml v1.3.1 + libmatroska v1.4.2
DURATION : 01:20:36.596000000
NUMBER_OF_FRAMES : 381
NUMBER_OF_BYTES : 18716
_STATISTICS_WRITING_APP : mkvmerge v8.2.0 ('World of Adventure') 64bit
_STATISTICS_WRITING_DATE_UT : 2015-07-28 02:08:09
_STATISTICS_TAGS : BPS DURATION NUMBER_OF_FRAMES NUMBER_OF_BYTES
Video
ID : 1
Format : xvid
Codec ID : V_MS/VFW/FOURCC / xvid
Bit rate : 3 326 Kbps
Width : 960 pixels
Height : 720 pixels
Display aspect ratio : 1.000
Frame rate mode : Variable
Language : Japanese
Default : Yes
Forced : No
Audio #1
ID : 2
Format : MPEG Audio
Format version : Version 1
Format profile : Layer 3
Mode : Joint stereo
Mode extension : MS Stereo
Codec ID : A_MPEG/L3
Codec ID/Hint : MP3
Duration : 1h 21mn
Bit rate mode : Variable
Bit rate : 102 Kbps
Nominal bit rate : 128 Kbps
Channel(s) : 2 channels
Sampling rate : 48.0 KHz
Compression mode : Lossy
Stream size : 59.6 MiB (3%)
Title : MP3 2.0 @ 102 Kbps - Одноголосый
Writing library : LAME3.97
Encoding settings : -m j -V 4 -q 2 -lowpass 17 --abr 128
Language : Russian
Default : Yes
Forced : No
Audio #2
ID : 3
Format : AC-3
Format/Info : Audio Coding 3
Mode extension : CM (complete main)
Format settings, Endianness : Big
Codec ID : A_AC3
Duration : 1h 21mn
Bit rate mode : Constant
Bit rate : 192 Kbps
Channel(s) : 2 channels
Channel positions : Front: L R
Sampling rate : 48.0 KHz
Compression mode : Lossy
Stream size : 112 MiB (5%)
Title : AC3 2.0 @ 192 Kbps - Оригинальный
Language : Japanese
Default : No
Forced : No
Text
ID : 4
Format : UTF-8
Codec ID : S_TEXT/UTF8
Codec ID/Info : UTF-8 Plain Text
Language : English
Default : No
Forced : No

Скриншоты

Вне форума [Профиль] [ЛС]

Dracula

Стаж: 3 года 1 месяц

Сообщений: 9705

Торрент-статистика

Пост 28-Июл-2015 10:48 (спустя 1 час 48 минут)

Топик был перенесен из форума Наше кино (HD Video) в форум Фильмы до 2000 года


Геннадич
 
Показать сообщения:    
Ответить на тему

Текущее время: Сегодня 10:59

Часовой пояс: GMT + 3



Вы не можете начинать темы
Вы не можете отвечать на сообщения
Вы не можете редактировать свои сообщения
Вы не можете удалять свои сообщения
Вы не можете голосовать в опросах
Вы не можете прикреплять файлы к сообщениям
Вы не можете скачивать файлы