Сегодня идет свободное скачивание без начисления Download

Астерикс и Обеликс против Цезаря / Asterix et Obelix contre Cesar [ Клод Зиди (1999) фэнтези, комедия, приключения, семейный, BDRip 1080p]

Ответить на тему
 
Автор
Сообщение

Delia ®

Пол:

Стаж: 6 лет 7 месяцев

Сообщений: 1930

Торрент-статистика

Пост 23-Май-2012 11:28

[Цитировать]

Астерикс и Обеликс против Цезаря / Asterix et Obelix contre Cesar«The Gauls are revolting!»--
Год выпуска: 1999
Страна: Германия , Франция , Италия
Жанр: фэнтези, комедия, приключения, семейный, ...
Продолжительность: 01:45:32
Перевод: Профессиональный (дублированный)
Субтитры: Russian (srt)
Режиссер: Клод Зиди
Сценарий: Терри Джонс, Жерар Лозье, Клод Зиди, ...
Продюсер: Клод Берри, Дитер Фрэнк, Пьер Грюнштейн, ...
Оператор: Тони Пирс-Робертс
Композитор: Жан-Жак Голдман, Роланд Романелли
Художник: Жан Рабасс, Сильви Готреле, Вероника Мелери
Монтаж: Эрве Де Люс, Николь Сонье- В ролях: Кристиан Клавье (Christian Clavier), Жерар Депардье (Gerard Depardieu), Роберто Бениньи (Roberto Benigni), Мишель Галабрю (Michel Galabru), Клод Пьеплю (Claude Pieplu), Даниэль Прево (Daniel Prevost), Пьер Пальмад (Pierre Palmade), Летиция Каста (Laetitia Casta), Ариель Домбаль (Arielle Dombasle), Сим (Sim), Марианне Зэгебрехт (Marianne Sagebrecht), Готтфрид Джон (Gottfried John), Жан-Пьер Кастальди (Jean-Pierre Castaldi), Жан-Роже Мило (Jean-Roger Milo), Жан-Жак Дево (Jean-Jacques Devaux), Харди Крюгер мл. (Hardy Kruger Jr.), Мишель Мюллер (Michel Muller), Оливье Ашар (Olivier Achard), Жак Делапорте (Jacques Delaporte), Philippe Lehembre
Описание: В 50-м году до нашей эры римский император Юлий Цезарь покорил Галлию. Только жители одной маленькой деревеньки отказались платить налоги римлянам. Ведь у них есть волшебный напиток, с помощью которого неразлучные друзья Астерикс и Обеликс становятся супергероями, способными сразиться со всей Римской империей...-- --Качество: BDRip
Формат: MKV
Видео кодек: H.264 (AVC)
Аудио кодеk: AC3
Видео: 1920x816 (2.35:1), 25.000 fps, AVC, 5 547 Kbps
Аудио: AC3, 384 Kbps, 48.0 KHz, 6 ch

МедиаИнфо

Код:
General
Complete name                    : Asterix et Obelix contre Cesar(1999)BDRip-F.HD.mkv
Format                           : Matroska
File size                        : 4.37 GiB
Duration                         : 1h 45mn
Overall bit rate                 : 5 928 Kbps
Encoded date                     : UTC 2012-05-23 07:07:55
Writing application              : mkvmerge v5.4.0 ('Piper') built on Mar 10 2012 13:34:39
Writing library                  : libebml v1.2.3 + libmatroska v1.3.0
Video
ID                               : 1
Format                           : AVC
Format/Info                      : Advanced Video Codec
Format profile                   : [email protected]
Format settings, CABAC           : Yes
Format settings, ReFrames        : 5 frames
Muxing mode                      : Container [email protected]
Codec ID                         : V_MPEG4/ISO/AVC
Duration                         : 1h 45mn
Bit rate                         : 5 547 Kbps
Width                            : 1 920 pixels
Height                           : 816 pixels
Display aspect ratio             : 2.35:1
Frame rate                       : 25.000 fps
Color space                      : YUV
Chroma subsampling               : 4:2:0
Bit depth                        : 8 bits
Scan type                        : Progressive
Bits/(Pixel*Frame)               : 0.142
Stream size                      : 4.00 GiB (92%)
Writing library                  : x264 core 122 r2184 5c85e0a
Encoding settings                : cabac=1 / ref=5 / deblock=1:-3:-2 / analyse=0x3:0x113 / me=umh / subme=10 / psy=1 / psy_rd=0.90:0.00 / mixed_ref=1 / me_range=48 / chroma_me=1 / trellis=2 / 8x8dct=1 / cqm=0 / deadzone=21,11 / fast_pskip=0 / chroma_qp_offset=-2 / threads=6 / sliced_threads=0 / nr=0 / decimate=0 / interlaced=0 / bluray_compat=0 / constrained_intra=0 / bframes=6 / b_pyramid=2 / b_adapt=2 / b_bias=0 / direct=3 / weightb=1 / open_gop=0 / weightp=2 / keyint=250 / keyint_min=25 / scenecut=40 / intra_refresh=0 / rc=2pass / mbtree=0 / bitrate=5547 / ratetol=1.0 / qcomp=0.70 / qpmin=0 / qpmax=69 / qpstep=4 / cplxblur=20.0 / qblur=0.5 / ip_ratio=1.40 / pb_ratio=1.30 / aq=2:0.90
Color primaries                  : BT.709-5, BT.1361, IEC 61966-2-4, SMPTE RP177
Transfer characteristics         : BT.709-5, BT.1361
Matrix coefficients              : BT.709-5, BT.1361, IEC 61966-2-4 709, SMPTE RP177
Audio
ID                               : 2
Format                           : AC-3
Format/Info                      : Audio Coding 3
Mode extension                   : CM (complete main)
Codec ID                         : A_AC3
Duration                         : 1h 45mn
Bit rate mode                    : Constant
Bit rate                         : 384 Kbps
Channel(s)                       : 6 channels
Channel positions                : Front: L C R, Side: L R, LFE
Sampling rate                    : 48.0 KHz
Bit depth                        : 16 bits
Stream size                      : 290 MiB (6%)
Language                         : Russian
Text
ID                               : 3
Format                           : UTF-8
Codec ID                         : S_TEXT/UTF8
Codec ID/Info                    : UTF-8 Plain Text
Language                         : Russian
Menu
00:00:00.000                     : en:Chapter 01
00:04:59.465                     : en:Chapter 02
00:08:29.592                     : en:Chapter 03
00:18:01.455                     : en:Chapter 04
00:28:17.695                     : en:Chapter 05
00:37:58.526                     : en:Chapter 06
00:45:36.400                     : en:Chapter 07
00:53:28.246                     : en:Chapter 08
01:01:52.417                     : en:Chapter 09
01:09:29.707                     : en:Chapter 10
01:17:56.963                     : en:Chapter 11
01:21:28.884                     : en:Chapter 12
01:24:40.450                     : en:Chapter 13
01:30:11.363                     : en:Chapter 14
01:38:49.381                     : en:Chapter 15
01:45:30.365                     : en:Chapter 16

Знаете ли Вы, что...

» Астерикс – это чуть-чуть переделанный типографский термин «астериск», а Обеликс – «галльский» вариант памятного термина «обелиск».
» Съемки картины начались 26 января 1998 года и проходили в Мюнехе (Германия) и в Бретани (Франция).


Скриншоты

   
   

_________________
Человек – это канат, натянутый между животным и сверхчеловеком, – канат над пропастью.
В человеке ценно то, что он мост, а не цель. Фридрих Ницше
Вне форума [Профиль] [ЛС]
Похожие темы
Форум Тема Автор Торрент Отв. Посл. сообщение
./templates/default/images/folder_dl.gif Приключения, детектив, боевик, триллер Книжная серия "Мастера современного детектива" (22 тома) [1993-1994] [FB2] Omen
3 | 0

0 | 2384

50

2012-11-19 19:47
Omen Последнее
./templates/default/images/folder_dl.gif Karaoke Мастер караоке: Детские песни из мультфильмов (DVD5) (2007) [AC3|224 kbps]<караоке> sashau
1 | 0

0 | 1442

25

2013-05-22 17:41
sashau Последнее
./templates/default/images/folder_dl.gif Обучающее видео "profileschool" | Мастер-класс - Предметная ретушь (2013) [PCRec] Omen
1 | 0

0 | 1356

54

2014-08-08 18:47
Omen Последнее
./templates/default/images/folder_dl.gif Обучающее видео Андрей Журавлев | Мастер-класс — Lab. Что это такое и как в нем работать (2014) PCRec Omen
1 | 0

1 | 1526

70

2014-08-31 17:53
uschakov.yura Последнее
./templates/default/images/folder_dl.gif Обучающее видео Sophie Black | Мастер-класс по обработке фотографий (2014) [PCRec] Omen
1 | 0

0 | 1074

40

2014-09-28 19:38
Omen Последнее
./templates/default/images/folder_dl.gif Обучающее видео Сергей Брежнев | Мастер-класс по работе с цветом и тонировке (2014) PCRec (H.264) Omen
2 | 0

0 | 1263

35

2014-10-19 12:32
Omen Последнее
./templates/default/images/folder_dl.gif Обучающее видео [HighlightsSchool] Борис Вербицкий Мастер-класс по цветокоррекции и работе с объемом (2013) PCRec Omen
1 | 0

0 | 1502

72

2015-01-04 13:13
Omen Последнее
./templates/default/images/folder_dl.gif Обучающее видео Алексей Черенков | "Мастер фото". Видеокурс профессиональной фотографии (2012) CamRip Omen
1 | 0

0 | 52

14

2015-05-03 17:14
Omen Последнее
./templates/default/images/folder_dl.gif Обучающее видео Алекс Мэй - Куннилингус. Секреты мастерства [2012] CamRip Omen
1 | 0

0 | 130

125

2015-05-07 00:18
Omen Последнее
./templates/default/images/folder_dl.gif Обучающее видео [Максим Басманов] Мастерская ретуши [2013, RUS, ММ] Omen
1 | 0

0 | 304

8

2015-05-09 03:00
Omen Последнее
Показать сообщения:    
Ответить на тему

Текущее время: Сегодня 20:24

Часовой пояс: GMT + 3



Вы не можете начинать темы
Вы не можете отвечать на сообщения
Вы не можете редактировать свои сообщения
Вы не можете удалять свои сообщения
Вы не можете голосовать в опросах
Вы не можете прикреплять файлы к сообщениям
Вы не можете скачивать файлы