Today is a free download without charge Download

Анатолий Полотно и Федя Карманов - Здравствуй, Крым! (2014) [FLAC|image+.cue]<Шансон>

Reply to topic
 
Author
Message

NarDok ®

Longevity: 7 years 10 months

Posts: 914

Торрент-статистика

Post 10-Aug-2015 23:09

[Quote]

Анатолий Полотно и Федя Карманов - Здравствуй, Крым! - Год: 2014
Производитель диска: Россия / ЗАО "United Music Group"
Жанр: Шансон
Продолжительность: 01:01:19
Кодек: FLAC
Битрейт: Lossless
Тип рипа: image+.cue
Треклист:
01.Живите - Здравствуйте
02.Здравствуй, Крым!
03.Кораблик
04.С Добрым Утром, Дорогая
05.Кедры
06.Памяти Друга
07.Колыбельная
08.Охотники
09.Бабушка
10.Пассионарность
11.Россия
12.Лучше, чем Вчера
13. Живите - Здравствуйте (Караоке)
14.Здравствуй, Крым! (Караоке)
15.С Добрым Утром, Дорогая (Караоке)
16.Кедры (Караоке)

Отчёт ЕАС&#58;

Код:
Exact Audio Copy V1.0 beta 3 from 29. August 2011
Отчёт EAC об извлечении, выполненном 29. ноября 2014, 18:01
А.ПОЛОТНО, Ф.КАРМАНОВ, О.ОБОЛЕНСКАЯ / ЗДРАВСТВУЙ, КРЫМ!
Дисковод: hp      DVDRAM GT80N   Adapter: 0  ID: 0
Режим чтения                 : Достоверность
Использование точного потока : Да
Отключение кэша аудио        : Да
Использование указателей C2  : Нет
Коррекция смещения при чтении                     : 102
Способность читать области Lead-in и Lead-out     : Нет
Заполнение пропущенных сэмплов тишиной            : Да
Удаление блоков с тишиной в начале и конце        : Нет
При вычислениях CRC использовались нулевые сэмплы : Да
Интерфейс                                         : Встроенный Win32-интерфейс для Win NT/2000
Выходной формат          : Пользовательский кодировщик
Выбранный битрейт        : 768 kBit/s
Качество                 : Высокий
Добавление ID3-тега      : Нет
Утилита сжатия           : C:\Program Files (x86)\Exact Audio Copy\FLAC\FLAC.EXE
Дополнительные параметры : -6 -V -T "ARTIST=%artist%" -T "TITLE=%title%" -T "ALBUM=%albumtitle%" -T "DATE=%year%" -T "TRACKNUMBER=%tracknr%" -T "GENRE=%genre%" -T "COMMENT=%comment%" -T "BAND=%albuminterpret%" -T "ALBUMARTIST=%albuminterpret%" -T "COMPOSER=%composer%" %haslyrics%--tag-from-file=LYRICS="%lyricsfile%"%haslyrics% -T "DISCNUMBER=%cdnumber%" -T "TOTALDISCS=%totalcds%" -T "TOTALTRACKS=%numtracks%" %hascover%--picture="%coverfile%"%hascover% %source% -o %dest%
TOC извлечённого CD
     Трек |   Старт  | Длительность | Начальный сектор | Конечный сектор
    ---------------------------------------------------------------------
       1  |  0:00.00 |    3:41.43   |           0      |      16617
       2  |  3:41.43 |    3:40.10   |       16618      |      33127
       3  |  7:21.53 |    3:16.59   |       33128      |      47886
       4  | 10:38.37 |    3:23.52   |       47887      |      63163
       5  | 14:02.14 |    4:37.33   |       63164      |      83971
       6  | 18:39.47 |    4:28.34   |       83972      |     104105
       7  | 23:08.06 |    4:01.31   |      104106      |     122211
       8  | 27:09.37 |    4:06.51   |      122212      |     140712
       9  | 31:16.13 |    3:18.28   |      140713      |     155590
      10  | 34:34.41 |    3:27.08   |      155591      |     171123
      11  | 38:01.49 |    4:10.44   |      171124      |     189917
      12  | 42:12.18 |    3:09.23   |      189918      |     204115
      13  | 45:21.41 |    3:42.61   |      204116      |     220826
      14  | 49:04.27 |    3:40.08   |      220827      |     237334
      15  | 52:44.35 |    3:23.45   |      237335      |     252604
      16  | 56:08.05 |    4:35.21   |      252605      |     273250
Характеристики диапазона извлечения и сообщения об ошибках
Выбранный диапазон
     Имя файла \А.ПОЛОТНО И Ф,КАРМАНОВ - ЗДРАВСТВУЙ, КРЫМ!\А.ПОЛОТНО, Ф.КАРМАНОВ, О.ОБОЛЕНСКАЯ - ЗДРАВСТВУЙ, КРЫМ!.wav
     Пиковый уровень 100.0 %
     Скорость извлечения 4.1 X
     Качество диапазона 99.9 %
     CRC теста 2B485117
     CRC копии 2B485117
     Копирование... OK
Ошибок не произошло
AccurateRip: сводка
Трек  1  отсутствует в базе данных
Трек  2  отсутствует в базе данных
Трек  3  отсутствует в базе данных
Трек  4  отсутствует в базе данных
Трек  5  отсутствует в базе данных
Трек  6  отсутствует в базе данных
Трек  7  отсутствует в базе данных
Трек  8  отсутствует в базе данных
Трек  9  отсутствует в базе данных
Трек 10  отсутствует в базе данных
Трек 11  отсутствует в базе данных
Трек 12  отсутствует в базе данных
Трек 13  отсутствует в базе данных
Трек 14  отсутствует в базе данных
Трек 15  отсутствует в базе данных
Трек 16  отсутствует в базе данных
Ни одного трека нет в базе AccurateRip
Конец отчёта

Отчёт auCDtect Task manager&#58;

Код:
-----------------------
DON'T MODIFY THIS FILE
-----------------------
PERFORMER: auCDtect Task Manager, ver. 1.6.0 RC1 build 1.6.0.1
Copyright (c) 2008-2010 y-soft. All rights reserved
http://y-soft.org
ANALYZER: auCDtect: CD records authenticity detector, version 0.8.2
Copyright (c) 2004 Oleg Berngardt. All rights reserved.
Copyright (c) 2004 Alexander Djourik. All rights reserved.
FILE: А.ПОЛОТНО, Ф.КАРМАНОВ, О.ОБОЛЕНСКАЯ - ЗДРАВСТВУЙ, КРЫМ!.flac
  Size: 469870924 Hash: 34F8A99611BCFB3A5B33851413CD2916 Accuracy: -m0
  Conclusion: CDDA 100%
  Signature: 7B78398340470ABD3B081A0CA6CA6EFDD61178C1

Спектрограмма&#58;

 

_________________

Other forum [Profile] [PM]
Display posts from previous:    
Reply to topic

The time now is: Today 16:41

All times are GMT + 3 Hours



You cannot post new topics in this forum
You cannot reply to topics in this forum
You cannot edit your posts in this forum
You cannot delete your posts in this forum
You cannot vote in polls in this forum
You cannot attach files in this forum
You cannot download files in this forum