Сегодня идет свободное скачивание без начисления Download

Бесконечная история / The Neverending Story / Die unendliche Geschichte (Вольфганг Петерсен / Wolfgang Petersen) [1984, Германия (ФРГ), США, фэнтези, приключения, BDRip] [Расширенная немецкая версия] Dub + Sub Por + Original Eng

Ответить на тему
 
Автор
Сообщение

Omen ®

Стаж: 4 года 1 месяц

Сообщений: 194394

Торрент-статистика

Пост 20-Авг-2015 18:00

[Цитировать]

Бесконечная история / The Neverending Story / Die unendliche Geschichte / Расширенная немецкая версия
Страна: Германия (ФРГ), США
Жанр: фэнтези, приключения
Год выпуска: 1984
Продолжительность: 01:41:12
Перевод: Профессиональный (дублированный) Киностудия имени М. Горького
Cубтитры: португальские
Оригинальная аудиодорожка: английский
Режиссер: Вольфганг Петерсен / Wolfgang Petersen
В ролях: Бэррет Оливер, Джералд МакРэйни, Драм Гаррет, Дэррил Кукси, Николас Гилберт, Томас Хилл, Дип Рой, Тило Прюкнер, Моузес Ганн, Ноа Хэтэуэй...
Описание: Убегая от школьных хулиганов, 10-летний Бастиан спрятался в старой книжной лавке, где нашел таинственную книгу, изукрашенную орнаментом. Открыв ее, Бастиан попал в призрачный фантастический мир бегающих улиток, летающих собак, бескрылых Драконов Удачи, проказливых эльфов и ходячей каменоломни по имени Камнекус.
Но волшебной стране Фантазии и ее правительнице, Девочке-Императрице, угрожает страшная напасть под названием Ничто, порожденная «несбывшимися мечтами». Спасти Фантазию могут лишь юный воин Атрейю и сила воображения необыкновенного мечтателя Бастиана…
Доп. информация: В советском прокате были удалены некоторые сцены, поэтому в дубляже сделано несколько вставок из MVO, на расширенные сцены перевод отсутствует. Дубляж предоставил metall210, синхронизировал Dreven.
Сэмпл: http://multi-up.com/1063180
Тип релиза: BDRip
Контейнер: MKV
Видео: 1280x544 (2.35:1), 24.000 fps, AVC, ~3200 Kbps, 0.191 bits/pixel
Аудио 1: Russian, 48.0 KHz, AC3, 2 ch, 192 Kbps - Киностудия имени М. Горького
Аудио 2: English, 48.0 KHz, AC3, 6 ch, 640 Kbps

MediaInfo

General
Unique ID : 175818502859428221358357077432242001768 (0x844569751FEA157DAE7D2FFACC0FD768)
Complete name : C:\The Neverending Story (German Version). BDRip 720p.mkv
Format : Matroska
Format version : Version 4 / Version 2
File size : 2.85 GiB
Duration : 1h 41mn
Overall bit rate : 4 028 Kbps
Movie name :
Encoded date : UTC 2015-08-20 13:01:59
Writing application : mkvmerge v8.3.0 ('Over the Horizon') 64bit
Writing library : libebml v1.3.1 + libmatroska v1.4.2
DURATION : 01:38:02.586000000
NUMBER_OF_FRAMES : 738
NUMBER_OF_BYTES : 21834
_STATISTICS_WRITING_APP : mkvmerge v8.3.0 ('Over the Horizon') 64bit
_STATISTICS_WRITING_DATE_UT : 2015-08-20 13:01:59
_STATISTICS_TAGS : BPS DURATION NUMBER_OF_FRAMES NUMBER_OF_BYTES
Video
ID : 1
Format : AVC
Format/Info : Advanced Video Codec
Format profile : [email protected]
Format settings, CABAC : Yes
Format settings, ReFrames : 5 frames
Codec ID : V_MPEG4/ISO/AVC
Duration : 1h 41mn
Bit rate : 3 200 Kbps
Width : 1 280 pixels
Height : 544 pixels
Display aspect ratio : 2.35:1
Frame rate mode : Constant
Frame rate : 24.000 fps
Color space : YUV
Chroma subsampling : 4:2:0
Bit depth : 8 bits
Scan type : Progressive
Bits/(Pixel*Frame) : 0.191
Stream size : 2.20 GiB (77%)
Writing library : x264 core 142 r2491 24e4fed
Encoding settings : cabac=1 / ref=5 / deblock=1:-3:-3 / analyse=0x3:0x133 / me=umh / subme=10 / psy=1 / psy_rd=1.00:0.00 / mixed_ref=1 / me_range=48 / chroma_me=1 / trellis=2 / 8x8dct=1 / cqm=0 / deadzone=21,11 / fast_pskip=1 / chroma_qp_offset=-2 / threads=6 / lookahead_threads=1 / sliced_threads=0 / nr=0 / decimate=1 / interlaced=0 / bluray_compat=0 / constrained_intra=0 / bframes=3 / b_pyramid=2 / b_adapt=2 / b_bias=0 / direct=3 / weightb=1 / open_gop=0 / weightp=2 / keyint=240 / keyint_min=23 / scenecut=40 / intra_refresh=0 / rc_lookahead=60 / rc=2pass / mbtree=1 / bitrate=3200 / ratetol=1.3 / qcomp=0.60 / qpmin=0 / qpmax=69 / qpstep=4 / cplxblur=20.0 / qblur=0.5 / vbv_maxrate=30000 / vbv_bufsize=40000 / nal_hrd=none / filler=0 / ip_ratio=1.40 / aq=1:1.00
Language : German
Default : Yes
Forced : No
Color range : Limited
Color primaries : BT.709
Transfer characteristics : BT.709
Matrix coefficients : BT.709
DURATION : 01:41:12.000000000
NUMBER_OF_FRAMES : 145728
NUMBER_OF_BYTES : 2424553586
_STATISTICS_WRITING_APP : mkvmerge v8.3.0 ('Over the Horizon') 64bit
_STATISTICS_WRITING_DATE_UT : 2015-08-20 13:01:59
_STATISTICS_TAGS : BPS DURATION NUMBER_OF_FRAMES NUMBER_OF_BYTES
Audio #1
ID : 2
Format : AC-3
Format/Info : Audio Coding 3
Mode extension : CM (complete main)
Format settings, Endianness : Big
Codec ID : A_AC3
Duration : 1h 41mn
Bit rate mode : Constant
Bit rate : 192 Kbps
Channel(s) : 2 channels
Channel positions : Front: L R
Sampling rate : 48.0 KHz
Compression mode : Lossy
Stream size : 139 MiB (5%)
Title : Киностудия имени М. Горького
Language : Russian
Default : Yes
Forced : No
Audio #2
ID : 3
Format : AC-3
Format/Info : Audio Coding 3
Mode extension : CM (complete main)
Format settings, Endianness : Big
Codec ID : A_AC3
Duration : 1h 41mn
Bit rate mode : Constant
Bit rate : 640 Kbps
Channel(s) : 6 channels
Channel positions : Front: L C R, Side: L R, LFE
Sampling rate : 48.0 KHz
Compression mode : Lossy
Stream size : 463 MiB (16%)
Language : English
Default : No
Forced : No
Text
ID : 4
Format : UTF-8
Codec ID : S_TEXT/UTF8
Codec ID/Info : UTF-8 Plain Text
Language : Portuguese
Default : No
Forced : No
Menu
00:00:00.000 : en:00:00:00.000
00:06:13.042 : en:00:06:13.042
00:08:00.000 : en:00:08:00.000
00:13:12.375 : en:00:13:12.375
00:19:45.208 : en:00:19:45.208
00:24:05.625 : en:00:24:05.625
00:29:41.667 : en:00:29:41.667
00:33:43.792 : en:00:33:43.792
00:39:30.625 : en:00:39:30.625
00:45:05.208 : en:00:45:05.208
00:47:54.917 : en:00:47:54.917
00:52:05.708 : en:00:52:05.708
00:58:53.958 : en:00:58:53.958
01:03:03.125 : en:01:03:03.125
01:06:25.750 : en:01:06:25.750
01:10:57.208 : en:01:10:57.208
01:16:21.958 : en:01:16:21.958
01:22:15.875 : en:01:22:15.875
01:25:08.208 : en:01:25:08.208
01:27:25.042 : en:01:27:25.042
01:33:44.083 : en:01:33:44.083
01:38:26.667 : en:01:38:26.667

Скриншоты

Вне форума [Профиль] [ЛС]

Dracula

Стаж: 3 года 1 месяц

Сообщений: 9853

Торрент-статистика

Пост 20-Авг-2015 18:09 (спустя 9 минут)

Топик был перенесен из форума Наше кино (HD Video) в форум Фильмы до 2000 года


Геннадич
 
Показать сообщения:    
Ответить на тему

Текущее время: Сегодня 02:55

Часовой пояс: GMT + 3



Вы не можете начинать темы
Вы не можете отвечать на сообщения
Вы не можете редактировать свои сообщения
Вы не можете удалять свои сообщения
Вы не можете голосовать в опросах
Вы не можете прикреплять файлы к сообщениям
Вы не можете скачивать файлы