Сегодня идет свободное скачивание без начисления Download

Doom (2015) WEBRip [H.264/1080p-LQ] [60 fps] [Gameplay Demo]

Ответить на тему
 
Автор
Сообщение

Omen ®

Стаж: 6 лет

Сообщений: 184329

Торрент-статистика

Пост 23-Авг-2015 18:15

[Цитировать]

Doom
[Gameplay Demo]
- Разработчик: id Software
Жанр: Action (Shooter) / 3D / 1st Person
Издатель в России: 1С-СофтКлаб
Издатель: ZeniMax Media
Дата выхода игры: в разработке, запланирована на весна 2016 г.
Платформы: Xbox One, PS4, PC,
Описание:
Исполнительный продюсер перезапуска серии DOOM Марти Стрэттон в интервью с порталом GameSpot заявил, что id Software нацелена на создание игры в разрешении 1080p и с 60FPS. Марти отметил, что команда старается сделать "самый красивый шутер в мире, который будет работать в разрешении Full HD с частотой 60 кадров в секунду". По словам Стрэттона, разработчики пытаются добиться таких цифр для того, чтобы игроки чувствовали себя максимально комфортно и ни на что не отвлекались. Кроме этого Марти также отметил, что несмотря на наличие у нового Doom многопользовательского режима, поддержки киберспортивных состязаний в игре не будет.
Напомним, что перезапуск знаменитой серии о приключениях безымянного морпеха, который сражается с ордами чудовищных демонов, выйдет уже весной следующего года в версиях для PC, Xbox One и PlayStation 4.
Продолжительность: 00:07:58
Качество видео: WEBRip
Перевод: Отсутствует
Видео: AVC/H.264, 1920х1080, ~4967 Кбит/сек
Аудио: AAC, 2 ch, 126 Кбит/сек, CBR

Mediainfo:

Код:
Общее
Полное имя                               : X:\Films\DOOM 4 GAMEPLAY 60FPS 1080p - Doom Gameplay Trailer.mp4
Формат                                   : MPEG-4
Профиль формата                          : Base Media
Идентификатор кодека                     : isom
Размер файла                             : 291 Мбайт
Продолжительность                        : 7 м. 58 с.
Общий поток                              : 5104 Кбит/сек
Программа кодирования                    : Lavf56.19.100
Видео
Идентификатор                            : 1
Формат                                   : AVC
Формат/Информация                        : Advanced Video Codec
Профиль формата                          : [url=mailto:[email protected]][email protected][/url]
Параметр CABAC формата                   : Да
Параметр ReFrames формата                : 3 кадра
Идентификатор кодека                     : avc1
Идентификатор кодека/Информация          : Advanced Video Coding
Продолжительность                        : 7 м. 58 с.
Битрейт                                  : 4967 Кбит/сек
Ширина                                   : 1920 пикселей
Высота                                   : 1080 пикселей
Соотношение сторон                       : 16:9
Режим частоты кадров                     : Постоянный
Частота кадров                           : 60,000 кадров/сек
Цветовое пространство                    : YUV
Субдискретизация насыщенности            : 4:2:0
Битовая глубина                          : 8 бит
Тип развёртки                            : Прогрессивная
Бит/(Пиксели*Кадры)                      : 0.040
Размер потока                            : 283 Мбайт (97%)
Аудио
Идентификатор                            : 2
Формат                                   : AAC
Формат/Информация                        : Advanced Audio Codec
Профиль формата                          : LC
Идентификатор кодека                     : 40
Продолжительность                        : 7 м. 58 с.
Вид битрейта                             : Постоянный
Битрейт                                  : 126 Кбит/сек
Каналы                                   : 2 канала
Расположение каналов                     : Front: L R
Частота                                  : 44,1 КГц
Метод сжатия                             : С потерями
Размер потока                            : 7,17 Мбайт (2%)
Скриншоты:
       
Вне форума [Профиль] [ЛС]
Показать сообщения:    
Ответить на тему

Текущее время: Сегодня 01:00

Часовой пояс: GMT + 3



Вы не можете начинать темы
Вы не можете отвечать на сообщения
Вы не можете редактировать свои сообщения
Вы не можете удалять свои сообщения
Вы не можете голосовать в опросах
Вы не можете прикреплять файлы к сообщениям
Вы не можете скачивать файлы