Сегодня идет свободное скачивание без начисления Download

Бешеные псы / Reservoir Dogs (Квентин Тарантино / Quentin Tarantino) [1992 г., Криминальная драма, триллер, BDRip720] от R.G. 20th Century Fox

Ответить на тему
 
Автор
Сообщение

BoxeR ®

Пол:

Стаж: 4 года 8 месяцев

Сообщений: 646

Торрент-статистика

Пост 30-Май-2012 01:03

[Цитировать]

-Бешеные псы / Reservoir Dogs -Год выпуска: 1992
Страна: США
Жанр: Криминальная драма, триллер
Продолжительность: 01:39:07
Перевод: Профессиональный (многоголосый, закадровый) -Режиссер: Квентин Тарантино / Quentin Tarantino
В ролях: Харви Кейтель, Майкл Мэдсен, Тим Рот, Стив Бушеми, Кристофер Пенн, Лоуренс Тирни, Эдди Банкер, Рэнди Брукс, Керк Болц
-Описание: Это должно было стать идеальным преступлением. Задумав ограбить ювелирный магазин, криминальный босс Джо Кэбот собрал вместе шестерых опытных и совершенно незнакомых друг с другом преступников. Но с самого начала все пошло не так, и обычный грабеж превратился в кровавую бойню. Один за другим оставшиеся в живых грабители собираются в условленном месте встречи — на заброшенном складе. Двое из них убиты, один тяжело ранен. И они знают, что среди них — предатель, сдавший их полиции…

Ripped by Mike Tyson
-Качество: BDRip720
Формат: MKV
Видео кодек: x264-Аудио кодек:: AС-3
Видео: 1280 x 544 (2.353) at 23.976 fps, 2641 Кбит/сек
Аудио:
Аудио: 48 kHz, AС-3, 6 ch 448kbps Многоголосый, закадровый


-

MediaInfo

Общее
Уникальный идентификатор : 256530017636255148443654704143805921029 (0xC0FDE25EDCC486B95C38A88092133705)
Полное имя : D:\Бешенные псы (R.G. 20th Century Fox).mkv
Формат : Matroska
Версия формата : Version 2
Размер файла : 2,18 Гбайт
Продолжительность : 1 ч. 39 м.
Общий поток : 3152 Кбит/сек
Программа кодирования : XviD4PSP 6.0 / 53.6.0
Библиотека кодирования : XviD4PSP 6.0 / 53.6.0
Видео
Идентификатор : 1
Формат : AVC
Формат/Информация : Advanced Video Codec
Профиль формата : [email protected]
Параметр CABAC формата : Да
Параметр ReFrames формата : 3 кадра
Идентификатор кодека : V_MPEG4/ISO/AVC
Продолжительность : 1 ч. 39 м.
Битрейт : 2641 Кбит/сек
Номинальный битрейт : 2880 Кбит/сек
Ширина : 1280 пикселей
Высота : 544 пикселя
Соотношение сторон : 2,35:1
Режим частоты кадров : Переменный
Частота кадров : 23,976 кадра/сек
Цветовое пространство : YUV
Субдискретизация насыщенности : 4:2:0
Битовая глубина : 8 бит
Тип развёртки : Прогрессивная
Бит/(Пиксели*Кадры) : 0.158
Размер потока : 1,83 Гбайт (84%)
Заголовок : Бешенные псы
Библиотека кодирования : x264 core 116 r2019M 9cc407d
Настройки программы : cabac=1 / ref=3 / deblock=1:-1:-1 / analyse=0x3:0x133 / me=dia / subme=1 / psy=1 / psy_rd=1.00:0.15 / mixed_ref=1 / me_range=16 / chroma_me=1 / trellis=0 / 8x8dct=1 / cqm=0 / deadzone=21,11 / fast_pskip=1 / chroma_qp_offset=0 / threads=6 / sliced_threads=0 / nr=0 / decimate=1 / interlaced=0 / bluray_compat=0 / constrained_intra=0 / bframes=3 / b_pyramid=1 / b_adapt=0 / b_bias=0 / direct=3 / weightb=1 / open_gop=0 / weightp=0 / keyint=230 / keyint_min=23 / scenecut=40 / intra_refresh=0 / rc_lookahead=40 / rc=cbr / mbtree=1 / bitrate=2880 / ratetol=1.0 / qcomp=0.60 / qpmin=10 / qpmax=51 / qpstep=4 / vbv_maxrate=2880 / vbv_bufsize=2880 / nal_hrd=none / ip_ratio=1.40 / aq=1:1.00
Язык : Russian
Default : Да
Forced : Нет
Аудио
Идентификатор : 2
Формат : AC-3
Формат/Информация : Audio Coding 3
Расширение режима : CM (complete main)
Идентификатор кодека : A_AC3
Продолжительность : 1 ч. 39 м.
Вид битрейта : Постоянный
Битрейт : 448 Кбит/сек
Каналы : 6 каналов
Расположение каналов : Front: L C R, Side: L R, LFE
Частота : 48,0 КГц
Битовая глубина : 16 бит
Метод сжатия : С потерями
Размер потока : 318 Мбайт (14%)
Заголовок : Профессиональный (многоголосый, закадровый)
Язык : Russian
Default : Да
Forced : Нет

Скриншоты

     


_________________


Последний раз редактировалось: BoxeR (2012-05-31 18:10), всего редактировалось 1 раз
Вне форума [Профиль] [ЛС]

Delia

Пол:

Стаж: 6 лет 7 месяцев

Сообщений: 1930

Торрент-статистика

Пост 31-Май-2012 17:37 (спустя 1 день 16 часов)

[Цитировать]

Медиоинфо ?

_________________
Человек – это канат, натянутый между животным и сверхчеловеком, – канат над пропастью.
В человеке ценно то, что он мост, а не цель. Фридрих Ницше
Вне форума [Профиль] [ЛС]
Показать сообщения:    
Ответить на тему

Текущее время: Сегодня 17:31

Часовой пояс: GMT + 3



Вы не можете начинать темы
Вы не можете отвечать на сообщения
Вы не можете редактировать свои сообщения
Вы не можете удалять свои сообщения
Вы не можете голосовать в опросах
Вы не можете прикреплять файлы к сообщениям
Вы не можете скачивать файлы