Сегодня идет свободное скачивание без начисления Download

Отмороженный профессор / Чокнутый профессор / Рассеянный профессор / The Absent-Minded Professor / The AbsentMinded Professor (Роберт Стивенсон / Robert Stevenson) [1961, США, фантастика, комедия, WEB-DL 720p] MVO + Sub Eng + Original Eng

Ответить на тему
 
Автор
Сообщение

Omen ®

Стаж: 4 года 1 месяц

Сообщений: 194390

Торрент-статистика

Пост 22-Сен-2015 15:50

[Цитировать]

Отмороженный профессор / Чокнутый профессор / Рассеянный профессор / The Absent-Minded Professor / The AbsentMinded Professor
Оригинальная Ч/Б версия Страна: США
Студия: Walt Disney Productions
Жанр: фантастика, комедия
Год выпуска: 1961
Продолжительность: 01:36:00
Перевод: Профессиональный (многоголосый закадровый)
Cубтитры: английские
Оригинальная аудиодорожка: английский
Режиссер: Роберт Стивенсон / Robert Stevenson
В ролях: Фред МакМюррэй, Нэнси Олсон, Кинен Уинн, Томми Кирк, Леон Эймс, Эллиот Рид, Эдвард Эндрюс, Дэвид Льюис, Джек Муллани, Белль Монтроуз
Описание: Профессор живет в маленьком городке, он увлекается химией — изобретает озорное вещество, «плюющее» на законы тяготения.
Он называет его «флаббером», летающей резиной, использовать его можно в разных целях. Если намазать им спортивную обувь, баскетболисты совершенно безнадежной команды колледжа обретут удивительную прыгучесть, победят соперников.


Sample
Тип релиза: WEB-DL 720p
Контейнер: MKV
Видео: MPEG4 AVC Video, H264, 1200x720, 23.976 fps, 3990 kbps
Аудио: Russian (AC3, 2 ch, 192 kbps, 16 bits, 48.0 KHz) - MVO
Аудио 2: English (AC3, 2 ch, 192 kbps, 16 bits, 48.0 KHz) - оригинал
Формат субтитров: softsub (SRT)

MediaInfo

General
Unique ID : 225751499431531388110277645026357928245 (0xA9D62843251A9CCFA8ABDC35D42FE135)
Complete name : K:\The Absent-Minded Professor 1961 WEB-DL 720p.mkv
Format : Matroska
Format version : Version 4 / Version 2
File size : 2.99 GiB
Duration : 1h 36mn
Overall bit rate : 4 463 Kbps
Encoded date : UTC 2015-09-21 18:06:20
Writing application : mkvmerge v6.1.0 ('Old Devil') built on Mar 2 2013 14:32:37
Writing library : libebml v1.3.0 + libmatroska v1.4.0
Video
ID : 1
Format : AVC
Format/Info : Advanced Video Codec
Format profile : [email protected]
Format settings, CABAC : No
Format settings, ReFrames : 2 frames
Codec ID : V_MPEG4/ISO/AVC
Duration : 1h 36mn
Bit rate : 3 990 Kbps
Width : 1 200 pixels
Height : 720 pixels
Display aspect ratio : 1.667
Frame rate mode : Constant
Frame rate : 23.976 fps
Color space : YUV
Chroma subsampling : 4:2:0
Bit depth : 8 bits
Scan type : Progressive
Bits/(Pixel*Frame) : 0.193
Stream size : 2.68 GiB (89%)
Language : English
Default : Yes
Forced : No
Color primaries : BT.709
Transfer characteristics : BT.709
Matrix coefficients : BT.709
Audio #1
ID : 2
Format : AC-3
Format/Info : Audio Coding 3
Mode extension : CM (complete main)
Format settings, Endianness : Big
Codec ID : A_AC3
Duration : 1h 36mn
Bit rate mode : Constant
Bit rate : 192 Kbps
Channel count : 2 channels
Channel positions : Front: L R
Sampling rate : 48.0 KHz
Bit depth : 16 bits
Compression mode : Lossy
Stream size : 132 MiB (4%)
Language : Russian
Default : Yes
Forced : No
Audio #2
ID : 3
Format : AC-3
Format/Info : Audio Coding 3
Mode extension : CM (complete main)
Format settings, Endianness : Big
Codec ID : A_AC3
Duration : 1h 36mn
Bit rate mode : Constant
Bit rate : 192 Kbps
Channel count : 2 channels
Channel positions : Front: L R
Sampling rate : 48.0 KHz
Bit depth : 16 bits
Compression mode : Lossy
Stream size : 132 MiB (4%)
Language : English
Default : No
Forced : No
Text
ID : 4
Format : UTF-8
Codec ID : S_TEXT/UTF8
Codec ID/Info : UTF-8 Plain Text
Language : English
Default : No
Forced : No
Menu
00:00:00.000 : en:Opening Credits/The Third Time's a Charm!
00:09:28.833 : en:Flubber!
00:16:43.466 : en:Saving Medfield
00:23:42.032 : en:The Test Drive
00:31:01.032 : en:A Basketball Wonder
00:43:44.132 : en:The Professor's Revenge
00:49:15.632 : en:A Business Proposition
00:59:54.132 : en:The Dance
01:05:13.398 : en:Bait and Switch
01:14:14.698 : en:Stealing the Car Back
01:19:35.898 : en:Bringing Down Mr. Hawk
01:25:15.864 : en:Military Alert
01:35:53.064 : en:End Credits

Скриншоты

Вне форума [Профиль] [ЛС]

Dracula

Стаж: 3 года 1 месяц

Сообщений: 9790

Торрент-статистика

Пост 22-Сен-2015 16:42 (спустя 52 минуты)

Топик был перенесен из форума Наше кино (HD Video) в форум Фильмы до 2000 года


Геннадич
 
Показать сообщения:    
Ответить на тему

Текущее время: Сегодня 13:28

Часовой пояс: GMT + 3



Вы не можете начинать темы
Вы не можете отвечать на сообщения
Вы не можете редактировать свои сообщения
Вы не можете удалять свои сообщения
Вы не можете голосовать в опросах
Вы не можете прикреплять файлы к сообщениям
Вы не можете скачивать файлы