Сегодня идет свободное скачивание без начисления Download

Неудачник / Loser (Эми Хекерлинг / Amy Heckerling) [2000, США, комедия, мелодрама, WEB-DL 720p] DVO + VO + Sub Eng + Original Eng

Ответить на тему
 
Автор
Сообщение

Omen ®

Стаж: 4 года 1 месяц

Сообщений: 194382

Торрент-статистика

Пост 25-Сен-2015 15:00

[Цитировать]

Неудачник / Loser
Страна: США
Студия: Branti Film Productions, Cockamamie
Жанр: комедия, мелодрама
Год выпуска: 2000
Продолжительность: 01:35:08
Перевод 1: Профессиональный (двухголосый закадровый) Видеосервис (VHS)
Перевод 2: Одноголосый закадровый Евгений Гранкин
Cубтитры: английские
Оригинальная аудиодорожка: английский
Режиссер: Эми Хекерлинг / Amy Heckerling
В ролях: Грег Киннир / Greg Kinnear, Джейсон Биггс / Jason Biggs, Джимми Симпсон / Jimmi Simpson, Зэк Орт / Zak Orth, Мена Сувари / Mena Suvari, Томас Садоски / Thomas Sadoski и др.
Описание: Что значит всегда чувствовать себя не в своей тарелке? Это значит быть неудачником. Пол приезжает в большой город, чтобы учиться в университете и сразу понимает, что он не такой как все: он не так одевается, не так разговаривает, не знает как вести себя с девушками. Звание неудачника ему присвоено пожизненно. Ну, как тут можно рассчитывать на внимание самой красивой девушки университета? Но, как оказывается, они одного поля ягоды...
II Сэмпл II IMDB II
Доп. информация:
За русские дороги спасибо spartac
Тип релиза: WEB-DL 720p
Контейнер: MKV
Видео: AVC / 1280x720 / 16:9 / 23.976fps / Bit rate 3908Kbps
Аудио 1: AC3 / 48.0 KHz / 2ch. / 192kbps / rus / dvo / Видеосервис (VHS)
Аудио 2: AC3 / 48.0 KHz / 2ch. / 192kbps / rus / vo / Евгений Гранкин
Аудио 3: AC3 / 48.0 KHz / 6ch. / 448kbps / eng / DVD
Аудио 4: AAC-LC / 48.0 KHz / 2ch. / 158kbps / eng / WEB-DL.720p
Формат субтитров: softsub (SRT)

MediaInfo

Общее
Уникальный идентификатор : 232764665718581125943806599364221786880 (0xAF1CD80E6F84A84BA7DD1735C6FADB00)
Полное имя : H:\!_Torrent\Loser.2000.WEB-DL.720p_by_vedigo.mkv
Формат : Matroska
Версия формата : Version 4 / Version 2
Размер файла : 3,31 Гбайт
Продолжительность : 1 ч. 35 м.
Общий поток : 4978 Кбит/сек
Название фильма : Loser.2000.WEB-DL.720p_by_vedigo
Дата кодирования : UTC 2015-09-25 08:40:36
Программа кодирования : mkvmerge v8.4.0 ('A better way to fly') 64bit
Библиотека кодирования : libebml v1.3.1 + libmatroska v1.4.2
DURATION : 01:31:20.356000000
NUMBER_OF_FRAMES : 1300
NUMBER_OF_BYTES : 51538
_STATISTICS_WRITING_APP : mkvmerge v8.4.0 ('A better way to fly') 64bit
_STATISTICS_WRITING_DATE_UTC : 2015-09-25 08:40:36
_STATISTICS_TAGS : BPS DURATION NUMBER_OF_FRAMES NUMBER_OF_BYTES
Видео
Идентификатор : 1
Формат : AVC
Формат/Информация : Advanced Video Codec
Профиль формата : [email protected]
Параметр CABAC формата : Нет
Параметр ReFrames формата : 2 кадра
Идентификатор кодека : V_MPEG4/ISO/AVC
Продолжительность : 1 ч. 35 м.
Ширина : 1280 пикселей
Высота : 720 пикселей
Соотношение сторон : 16:9
Режим частоты кадров : Постоянный
Частота кадров : 23,976 кадра/сек
Цветовое пространство : YUV
Субдискретизация насыщенности : 4:2:0
Битовая глубина : 8 бит
Тип развёртки : Прогрессивная
Заголовок : Loser.2000.WEB-DL.720p_by_vedigo
Default : Да
Forced : Нет
Цветовой диапазон : Limited
Основные цвета : BT.709
Характеристики трансфера : BT.709
Коэффициенты матрицы : BT.709
Аудио #1
Идентификатор : 2
Формат : AC-3
Формат/Информация : Audio Coding 3
Расширение режима : CM (complete main)
Параметр Endianness формата : Big
Идентификатор кодека : A_AC3
Продолжительность : 1 ч. 35 м.
Вид битрейта : Постоянный
Битрейт : 192 Кбит/сек
Каналы : 2 канала
Расположение каналов : Front: L R
Частота : 48,0 КГц
Метод сжатия : С потерями
Размер потока : 131 Мбайт (4%)
Заголовок : DVO @ VHS Видеосервис
Язык : Russian
Default : Да
Forced : Нет
Аудио #2
Идентификатор : 3
Формат : AC-3
Формат/Информация : Audio Coding 3
Расширение режима : CM (complete main)
Параметр Endianness формата : Big
Идентификатор кодека : A_AC3
Продолжительность : 1 ч. 35 м.
Вид битрейта : Постоянный
Битрейт : 192 Кбит/сек
Каналы : 2 канала
Расположение каналов : Front: L R
Частота : 48,0 КГц
Метод сжатия : С потерями
Размер потока : 131 Мбайт (4%)
Заголовок : VO
Язык : Russian
Default : Нет
Forced : Нет
Аудио #3
Идентификатор : 4
Формат : AC-3
Формат/Информация : Audio Coding 3
Расширение режима : CM (complete main)
Параметр Endianness формата : Big
Идентификатор кодека : A_AC3
Продолжительность : 1 ч. 35 м.
Вид битрейта : Постоянный
Битрейт : 448 Кбит/сек
Каналы : 6 каналов
Расположение каналов : Front: L C R, Side: L R, LFE
Частота : 48,0 КГц
Метод сжатия : С потерями
Размер потока : 305 Мбайт (9%)
Заголовок : original @ DVD
Язык : English
Default : Нет
Forced : Нет
Аудио #4
Идентификатор : 5
Формат : AAC
Формат/Информация : Advanced Audio Codec
Профиль формата : LC
Идентификатор кодека : A_AAC
Продолжительность : 1 ч. 35 м.
Каналы : 2 канала
Расположение каналов : Front: L R
Частота : 48,0 КГц
Метод сжатия : С потерями
Заголовок : original @ WEB-DL.720p
Язык : English
Default : Нет
Forced : Нет
Текст
Идентификатор : 6
Формат : UTF-8
Идентификатор кодека : S_TEXT/UTF8
Идентификатор кодека/Информация : UTF-8 Plain Text
Заголовок : subtitle eng
Язык : English
Default : Нет
Forced : Нет
Меню
00:00:00.000 : en:Start
00:06:44.000 : en:Alcott's class
00:08:42.000 : en:Student affair
00:10:09.000 : en:"No one likes you."
00:13:07.000 : en:Pantyhosed
00:14:38.000 : en:$40 short
00:15:58.000 : en:Dorm R.A.
00:22:35.000 : en:Commons Room meeting
00:24:17.000 : en:Village Animal Hospital
00:27:54.000 : en:Making the grade
00:32:36.000 : en:Lovers' spat
00:35:27.000 : en:Two tickets
00:37:07.000 : en:Trial run get-together
00:39:41.000 : en:The Fundraiser
00:42:42.000 : en:"So Much For The Afterglow."
00:44:07.000 : en:Party's over
00:50:28.000 : en:"Why are you so nice?"
00:54:11.000 : en:Feeling better
00:58:25.000 : en:"It's alive!"
01:01:34.000 : en:Job search
01:05:40.000 : en:"Cabaret"
01:09:16.000 : en:Best day of her life
01:14:02.000 : en:Suffering the consequences
01:17:35.000 : en:Ginko
01:20:43.000 : en:A moral stand
01:23:48.000 : en:"I just miss her."
01:24:51.000 : en:"What flowers?"
01:27:51.000 : en:Dora means it

Скриншоты


Вне форума [Профиль] [ЛС]

Dracula

Стаж: 3 года 1 месяц

Сообщений: 9746

Торрент-статистика

Пост 25-Сен-2015 15:35 (спустя 35 минут)

Топик был перенесен из форума Наше кино (HD Video) в форум Фильмы до 2000 года


Геннадич
 
Похожие темы
Форум Тема Автор Торрент Отв. Посл. сообщение
./templates/default/images/folder_dl.gif Психология, Тренинг, Саморазвитие Стивен Адамс | Привычки неудачников (2014) [RTF, EPUB] Aikivas
1 | 0

0 | 517

10

2015-05-13 12:59
Aikivas Последнее
Показать сообщения:    
Ответить на тему

Текущее время: Сегодня 22:20

Часовой пояс: GMT + 3



Вы не можете начинать темы
Вы не можете отвечать на сообщения
Вы не можете редактировать свои сообщения
Вы не можете удалять свои сообщения
Вы не можете голосовать в опросах
Вы не можете прикреплять файлы к сообщениям
Вы не можете скачивать файлы