Сегодня идет свободное скачивание без начисления Download

Convert Monster | Яндекс.Директ 2017 (2017) PCRec [H.264]

Ответить на тему
 
Автор
Сообщение

Omen ®

Стаж: 5 лет 2 месяца

Сообщений: 190516

Торрент-статистика

Пост 14-Окт-2015 12:01

[Цитировать]

Яндекс.Директ 2017 - Автор (режиссер): Антон Петроченков
Производство: Convert Monster
Жанр: Контекстная реклама, Яндекс.Директ
Описание:
Практический курс подготовки специалистов на настройке Яндекс.Директ.
Продолжительность: 18:33:54
Качество видео: PCRec
Видео: AVC/H.264, 1152-1280x648-720, ~166-2807 Kbps
Аудио: AAC, 2 ch, 125-192 Kbps

Программа курса:

ЗАНЯТИЕ 1. Создание медиаплана
  • Знакомство с куратором
  • Медиапланирование
  • Анализ конкурентов
ЗАНЯТИЕ 2. Работа с семантикой
  • Сбор семантического ядра на автопилоте
  • “Мозговой штурм” и другие методы подбора ключевых слов
  • Автоматизация сбора семантического ядра NEW!
Результат: Рабочее семантическое ядро
ЗАНЯТИЕ 3. Создание текста объявления
  • Форматирование заголовков
  • Как написать объявление с CTR > 6% на поиске
  • Почему на ваше объявление не кликают
  • Скрипты для поисковых кампаний
  • Скрипты для площадок
  • Расширения
ЗАНЯТИЕ 4. Полная настройка поисковой кампании Яндекс.Директ
  • Особенности настройки для аукциона VCG NEW!
  • Тестирование рекламных кампаний NEW!
  • Полная подготовка файла ексель для заливки
  • Заливка кампании через интерфейс
  • Работа в Директ.Коммандере
  • Работа с UTM-метками
  • Кросс-минусовка
Приложение к уроку: Макрос для быстрой работы с длинными заголовками
ЗАНЯТИЕ 5. Работа с РСЯ
  • Создание объявлений для РСЯ
  • Загрузка объявлений с помощью Direct Commander
  • Секреты назначения ставок
  • Мобильная реклама NEW!
  • Ретаргетинг NEW!
  • Поведенческие и тематические кампании NEW!
  • Внутренний аукцион изображений
ЗАНЯТИЕ 6. Дополнительные сервисы Яндекс
  • Яндекс.Аудитории
  • Гиперлокальный таргетинг
  • Динамические объявления
  • Реклама мобильных приложений
  • Смарт-баннеры
  • Яндекс.Дисплей
  • Яндекс.Баян
ЗАНЯТИЕ 7. Оптимизация в Яндекс.Метрике 2.0 NEW!
  • Оптимизация рекламных кампаний в веб-интерфейсе
  • Основные показатели Яндекс.Метрики 2.0 Автоматизация рекламной кампании
  • Составление Black-листов
  • Анализ типовых отчетов
Результат: снижение стоимости заявки в 3-5 раз и увеличение целевых кликов
ЗАНЯТИЕ 8. Профессиональные фишки контекстной рекламы NEW!
  • Секреты кликабельных объявлений
  • Углубленный сбор семантического ядра
  • Применение операторов
  • Расчет предельной стоимости клика
  • Ретаргетинг через сегменты Яндекс.Метрики 2.0
  • + 7 профессиональных фишек
Результат: профессиональное владение Яндекс.Директ

Mediainfo:

Общее
Полное имя : \[ConvertMonster] ЯНДЕКС.ДИРЕКТ 2017\Занятие 4. Полная настройка поисковой кампании Яндекс.Директ\Видеоинструкция по работе с Директ.Коммандер.mp4
Формат : MPEG-4
Идентификатор кодека : M4V (M4V /mp42/isom)
Размер файла : 1,19 Гбайт
Продолжительность : 57 м. 50 с.
Режим общего битрейта : Переменный
Общий поток : 2939 Кбит/сек
Дата кодирования : UTC 2014-04-10 18:42:07
Дата пометки : UTC 2014-04-10 18:42:07
Видео
Идентификатор : 1
Формат : AVC
Формат/Информация : Advanced Video Codec
Профиль формата : [url=mailto:[email protected]][email protected][/url]
Параметр CABAC формата : Нет
Параметр RefFrames формата : 3 кадра
Параметр GOP формата : M=1, N=24
Идентификатор кодека : avc1
Идентификатор кодека/Информация : Advanced Video Coding
Продолжительность : 57 м. 50 с.
Продолжительность оригинала : 57 м. 50 с.
Битрейт : 2807 Кбит/сек
Ширина : 1152 пикселя
Высота : 648 пикселей
Соотношение сторон : 16:9
Режим частоты кадров : Постоянный
Частота кадров : 30,000 кадров/сек
Стандарт вещания : NTSC
Цветовое пространство : YUV
Субдискретизация насыщенности : 4:2:0
Битовая глубина : 8 бит
Тип развёртки : Прогрессивная
Бит/(Пиксели*Кадры) : 0.125
Размер потока : 1,13 Гбайт (96%)
Размер потока оригинала : 1,13 Гбайт (96%)
Язык : English
Дата кодирования : UTC 2014-04-10 18:42:15
Дата пометки : UTC 2014-04-10 18:42:15
Цветовой диапазон : Limited
Аудио
Идентификатор : 2
Формат : AAC
Формат/Информация : Advanced Audio Codec
Профиль формата : LC
Идентификатор кодека : 40
Продолжительность : 57 м. 50 с.
Продолжительность оригинала : 57 м. 50 с.
Вид битрейта : Переменный
Номинальный битрейт : 125 Кбит/сек
Максимальный битрейт : 333 Кбит/сек
Каналы : 2 канала
Расположение каналов : Front: L R
Частота : 44,1 КГц
Частота кадров : 43,066 кадра/сек (1024 SPF)
Метод сжатия : С потерями
Размер потока оригинала : 51,9 Мбайт (4%)
Язык : English
Дата кодирования : UTC 2014-04-10 18:42:15
Дата пометки : UTC 2014-04-10 18:42:15
Общее
Полное имя : \[ConvertMonster] ЯНДЕКС.ДИРЕКТ 2017\Занятие 1. Создание медиаплана\Яндекс.Директ 2017, занятие 1.mp4
Формат : MPEG-4
Профиль формата : Base Media
Идентификатор кодека : isom (isom/iso2/mp41)
Размер файла : 1,06 Гбайт
Продолжительность : 2 ч. 16 м.
Режим общего битрейта : Постоянный
Общий поток : 1103 Кбит/сек
Программа кодирования : Lavf53.32.100
Видео
Идентификатор : 1
Формат : MPEG-4 Visual
Профиль формата : [email protected]
Параметр BVOP формата : Нет
Параметр QPel формата : Нет
Параметр GMC формата : Без точки перехода
Параметр матрицы формата : Default (H.263)
Идентификатор кодека : 20
Продолжительность : 2 ч. 16 м.
Вид битрейта : Постоянный
Битрейт : 904 Кбит/сек
Ширина : 1280 пикселей
Высота : 720 пикселей
Соотношение сторон : 16:9
Режим частоты кадров : Постоянный
Частота кадров : 30,000 кадров/сек
Цветовое пространство : YUV
Субдискретизация насыщенности : 4:2:0
Битовая глубина : 8 бит
Тип развёртки : Прогрессивная
Метод сжатия : С потерями
Бит/(Пиксели*Кадры) : 0.033
Размер потока : 886 Мбайт (82%)
Библиотека кодирования : Lavc53.61.100
Аудио
Идентификатор : 2
Формат : AAC
Формат/Информация : Advanced Audio Codec
Профиль формата : LC
Идентификатор кодека : 40
Продолжительность : 2 ч. 16 м.
Вид битрейта : Постоянный
Битрейт : 192 Кбит/сек
Каналы : 2 канала
Расположение каналов : Front: L R
Частота : 44,1 КГц
Частота кадров : 43,066 кадра/сек (1024 SPF)
Метод сжатия : С потерями
Размер потока : 188 Мбайт (17%)
Default : Да
AlternateGroup/String : 1
Скриншоты:
       
Вне форума [Профиль] [ЛС]
Показать сообщения:    
Ответить на тему

Текущее время: Сегодня 14:35

Часовой пояс: GMT + 3



Вы не можете начинать темы
Вы не можете отвечать на сообщения
Вы не можете редактировать свои сообщения
Вы не можете удалять свои сообщения
Вы не можете голосовать в опросах
Вы не можете прикреплять файлы к сообщениям
Вы не можете скачивать файлы