Сегодня идет свободное скачивание без начисления Download

Пятый элемент / The Fifth Element (Люк Бессон) [1997 г., Фантастика, боевик, триллер, BDRip 720p]

Ответить на тему
 
Автор
Сообщение

zeke ®

Пол:

Стаж: 6 лет 7 месяцев

Сообщений: 117

Торрент-статистика

Пост 15-Фев-2011 20:57

[Цитировать]

Пятый элемент / The Fifth Element Год выпуска: 1997
Страна: Франция
Жанр: Фантастика, боевик, триллер, мелодрама, приключения
Продолжительность: 02:05:53
Перевод:
Профессиональный (многоголосный, закадровый) - СТС
Профессиональный (полное дублирование) - НТВ-Профит
Профессиональный (полное дублирование) - Амальгама
Субтитры: Отсутствуют
Режиссер: Люк Бессон
Продюссер: Джон А. Амикарелла, Патрис Леду, Айэйн Смит
Сценарий: Люк Бессон, Роберт Марк Кэмен
Бюджет: $90 000 000
Премьера в мире: 7 мая 1997
В ролях: Брюс Уиллис, Гари Олдман, Иэн Холм, Милла Йовович, Крис Такер, Люк Перри, Брайон Джеймс, Том ’Тайни’ Листер мл., Ли Эванс, Чарли Крид-Майлз

Описание: Каждые пять тысяч лет открываются двери между измерениями и темные силы стремятся нарушить существующую гармонию. Каждые пять тысяч лет Вселенной нужен герой, способный противостоять этому злу. XXIII век. Нью-йоркский таксист Корбен Даллас должен решить глобальную задачу — спасение всего рода человеческого.Зло в виде раскаленной массы, наделенной интеллектом, надвигается на Землю. Победить его можно, только лишь собрав воедино четыре элемента (они же стихии — земля, вода, воздух и огонь) и добавив к ним загадочный пятый элемент.
Качество: BDRip 720p
Формат: MKV
Видео кодек: H.264
Аудио кодек: AC3
Видео: AVC, 1280x528 (16:9), 23.976fps, 2 253 Kbps, H.264, Profile [email protected]
Аудио:
AC3, Russian, 5.1 channels, 384kbps, 16 bits, 48.0 KHz [СТС]
AC3, Russian, 5.1 channels, 384kbps, 16 bits, 48.0 KHz [НТВ-Профит]
AC3, Russian, 5.1 channels, 384kbps, 16 bits, 48.0 KHz [CEE, Амальгама]
Сэмпл

MediaInfo:

General
Unique ID : 251097158255079179820128428476823104884 (0xBCE78DB8F3D0ECF89FAA41E10945ED74)
Complete name : E:Пятый элемент [BDRip 720p] (1997).mkv
Format : Matroska
File size : 3.00 GiB
Duration : 2h 6mn
Overall bit rate : 3 390 Kbps
Encoded date : UTC 2011-01-21 12:59:07
Writing application : mkvmerge v4.4.0 ('Die Wiederkehr') сборка от Oct 31 2010 21:52:48
Writing library : libebml v1.0.0 + libmatroska v1.0.0
Video
ID : 1
Format : AVC
Format/Info : Advanced Video Codec
Format profile : [email protected]
Format settings, CABAC : Yes
Format settings, ReFrames : 3 frames
Format settings, GOP : M=1, N=44
Muxing mode : Header stripping
Codec ID : V_MPEG4/ISO/AVC
Duration : 2h 6mn
Bit rate mode : Variable
Bit rate : 2 253 Kbps
Maximum bit rate : 40.0 Mbps
Width : 1 280 pixels
Height : 528 pixels
Display aspect ratio : 2.40:1
Frame rate : 23.976 fps
Color space : YUV
Chroma subsampling : 4:2:0
Bit depth : 8 bits
Scan type : Progressive
Bits/(Pixel*Frame) : 0.139
Stream size : 1.92 GiB (64%)
Title : Freeisland.HD
Writing library : x264 core 112 r1867 22bfd31
Encoding settings : cabac=1 / ref=4 / deblock=1:-1:-1 / analyse=0x3:0x133 / me=hex / subme=8 / psy=1 / psy_rd=1.00:0.15 / mixed_ref=1 / me_range=16 / chroma_me=1 / trellis=1 / 8x8dct=1 / cqm=0 / deadzone=21,11 / fast_pskip=1 / chroma_qp_offset=-3 / threads=2 / sliced_threads=0 / slices=4 / nr=0 / decimate=1 / interlaced=0 / constrained_intra=0 / bframes=3 / b_pyramid=1 / b_adapt=2 / b_bias=0 / direct=1 / weightb=1 / open_gop=2 / weightp=0 / keyint=60 / keyint_min=6 / scenecut=40 / intra_refresh=0 / rc_lookahead=45 / rc=2pass / mbtree=1 / bitrate=2253 / ratetol=1.0 / qcomp=0.60 / qpmin=0 / qpmax=51 / qpstep=4 / cplxblur=20.0 / qblur=0.5 / vbv_maxrate=40000 / vbv_bufsize=30000 / nal_hrd=vbr / ip_ratio=1.40 / aq=1:1.00
Language : English
Color primaries : BT.709-5, BT.1361, IEC 61966-2-4, SMPTE RP177
Transfer characteristics : BT.709-5, BT.1361
Matrix coefficients : BT.709-5, BT.1361, IEC 61966-2-4 709, SMPTE RP177
Audio #1
ID : 2
Format : AC-3
Format/Info : Audio Coding 3
Mode extension : CM (complete main)
Muxing mode : Header stripping
Codec ID : A_AC3
Duration : 2h 6mn
Bit rate mode : Constant
Bit rate : 384 Kbps
Channel(s) : 6 channels
Channel positions : Front: L C R, Side: L R, LFE
Sampling rate : 48.0 KHz
Bit depth : 16 bits
Compression mode : Lossy
Stream size : 348 MiB (11%)
Title : AC3, Russian, 5.1 channels, 384kbps, 16 bits, 48.0 KHz [СТС]
Language : Russian
Audio #2
ID : 3
Format : AC-3
Format/Info : Audio Coding 3
Mode extension : CM (complete main)
Muxing mode : Header stripping
Codec ID : A_AC3
Duration : 2h 6mn
Bit rate mode : Constant
Bit rate : 384 Kbps
Channel(s) : 6 channels
Channel positions : Front: L C R, Side: L R, LFE
Sampling rate : 48.0 KHz
Bit depth : 16 bits
Compression mode : Lossy
Stream size : 348 MiB (11%)
Title : AC3, Russian, 5.1 channels, 384kbps, 16 bits, 48.0 KHz [НТВ-Профит]
Language : Russian
Audio #3
ID : 4
Format : AC-3
Format/Info : Audio Coding 3
Mode extension : CM (complete main)
Muxing mode : Header stripping
Codec ID : A_AC3
Duration : 2h 6mn
Bit rate mode : Constant
Bit rate : 384 Kbps
Channel(s) : 6 channels
Channel positions : Front: L C R, Side: L R, LFE
Sampling rate : 48.0 KHz
Bit depth : 16 bits
Compression mode : Lossy
Stream size : 348 MiB (11%)
Title : AC3, Russian, 5.1 channels, 384kbps, 16 bits, 48.0 KHz [CEE, Амальгама]
Language : Russian

Скриншоты

    

_________________
|LOST|
Вне форума [Профиль] [ЛС]
Показать сообщения:    
Ответить на тему

Текущее время: Сегодня 16:41

Часовой пояс: GMT + 3



Вы не можете начинать темы
Вы не можете отвечать на сообщения
Вы не можете редактировать свои сообщения
Вы не можете удалять свои сообщения
Вы не можете голосовать в опросах
Вы не можете прикреплять файлы к сообщениям
Вы не можете скачивать файлы