Сегодня идет свободное скачивание без начисления Download

Голубой Гром / Blue Thunder (Джон Бэдэм) [1982 г., фантастика, боевик, триллер, драма, криминал, HDRip] P (Scarabey)

Ответить на тему
 
Автор
Сообщение

Region_13 ®

Пол:

Стаж: 2 года 10 месяцев

Сообщений: 923

Откуда: Мальдивы

Торрент-статистика

Пост 13-Ноя-2015 00:11

[Цитировать]

Голубой Гром / Blue Thunder
Год выпуска: 1982
Страна: США
Жанр: фантастика, боевик, триллер, драма, криминал
Продолжительность: 105 мин. / 01:45
Перевод: Профессиональный (многоголосый закадровый)
Режиссер: Джон Бэдэм
Продюссер: Гордон Кэрролл, Грегг Чемпион, Фил Фельдман
Сценарий: Дэн О’Бэннон, Дон Джекоби, Дин Райснер
Бюджет: $22 000 000
Премьера в мире: 5 февраля 1983
лицам до 17 лет обязательно присутствие взрослого


В ролях: Рой Шайдер, Уоррен Оутс, Кэнди Кларк, Дэниел Стерн, Дэвид Шейнер, Эд Бернар, Джо Сантос, Малкольм МакДауэлл, Пол Роблинг, Джейсон Бернард, Марио Мачадо, Джеймс Мерто, Джек Мёрдок, Фил Фелдман, Робин Брэкстон, Билли Рэй Шарки, Росс Рейнольдс, Пол Ламберт, Пэт МакНамара, Энтони Джеймс
Описание: В распоряжении полиции Лос-Анджелеса оказывается новейший полицейский вертолет, авторы которого дали ему название «Голубой гром». Опробовать новый вертолет в деле предстоит пилоту полицейскому Фрэнку Мерфи. В скором времени Фрэнк узнает, что в истории создания этого вертолета есть множество загадочных деталей и истинная цель конструкторов вертолета вовсе не обеспечение безопасности жителей Лос-Анджелеса. Ему предстоит разобраться в заговоре, в котором оказываются замешаны многие высокопоставленные чиновники страны.
Качество: HDRip
Формат: AVI
Видео кодек: XviD
Аудио кодек: MP3
Видео: 688x288 (2.39:1), 23.976 fps, XviD build 73 ~815 kbps avg, 0.17 bit/pixel
Аудио: 48 kHz, MPEG Layer 3, 2 ch, ~128.00 kbps avg
Релиз от: Scarabey

MI

Общее
Полное имя : E:\Голубой Гром\Blue.Thunder.1983_HDRip__[scarabey.org].avi
Формат : AVI
Формат/Информация : Audio Video Interleave
Размер файла : 745 Мбайт
Продолжительность : 1 ч. 49 м.
Общий поток : 953 Кбит/сек
Программа кодирования : VirtualDubMod 1.5.10.3 | www.virtualdub-fr.org || (build 2550/release)
Библиотека кодирования : VirtualDubMod build 2550/release
Видео
Идентификатор : 0
Формат : MPEG-4 Visual
Профиль формата : Advanced [email protected]
Параметр BVOP формата : 1
Параметр QPel формата : Нет
Параметр GMC формата : Без точки перехода
Параметр матрицы формата : Выборочная
Идентификатор кодека : XVID
Идентификатор кодека/Подсказка : XviD
Продолжительность : 1 ч. 49 м.
Битрейт : 816 Кбит/сек
Ширина : 688 пикселей
Высота : 288 пикселей
Соотношение сторон : 2,40:1
Частота кадров : 23,976 кадра/сек
Цветовое пространство : YUV
Субдискретизация насыщенности : 4:2:0
Битовая глубина : 8 бит
Тип развёртки : Прогрессивная
Метод сжатия : С потерями
Бит/(Пиксели*Кадры) : 0.172
Размер потока : 637 Мбайт (86%)
Библиотека кодирования : XviD 73
Аудио
Идентификатор : 1
Формат : MPEG Audio
Версия формата : Version 1
Профиль формата : Layer 3
Идентификатор кодека : 55
Идентификатор кодека/Подсказка : MP3
Продолжительность : 1 ч. 49 м.
Вид битрейта : Постоянный
Битрейт : 128 Кбит/сек
Каналы : 2 канала
Частота : 48,0 КГц
Метод сжатия : С потерями
Размер потока : 100 Мбайт (13%)
Выравнивание : Соединение по промежуткам
Продолжительность промежутка : 42 мс. (1,00 видеокадр)
Время предзагрузки промежутка : 504 мс.
Библиотека кодирования : LAME3.99r
Настройки программы : -m s -V 4 -q 2 -lowpass 17 -b 128

Знаете ли Вы,что........

В роли «Голубого грома» в фильме выступает французский вертолёт «Газель», на который была установлена кабина «в стиле» AH-64 и другие декорации.
СПОЙЛЕРОШИБКА
Сцена, когда во время воздушного боя «Голубой гром» выполняет петлю Нестерова, снималась с использованием радиоуправляемой модели, однако не является режиссёрской выдумкой — некоторые типы вертолётов (в частности, Ка-50) действительно могут выполнять эту фигуру высшего пилотажа.
В видеоиграх Grand Theft Auto: Vice City и Grand Theft Auto: San Andreas фильм упоминается в качестве «пасхального яйца»: полицейская миссия (Vigilante Mission), выполняемая на боевом вертолёте Hunter, носит название «Коричневый гром» (Brown Thunder).

Скриншоты

                   

_________________
Вне форума [Профиль] [ЛС]

Геннадич

Пол:

Стаж: 3 года 4 месяца

Сообщений: 4158

Торрент-статистика

Пост 13-Ноя-2015 09:00 (спустя 8 часов)

[Цитировать]

информация:
для видео формата AVI,
для получения технической информации пользуемся программой AVIinfo https://darkos.club/viewtopic.php?t=210268 (п. 2), все данные легко вставляем в релиз...

_________________
Вне форума [Профиль] [ЛС]
Показать сообщения:    
Ответить на тему

Текущее время: Сегодня 13:29

Часовой пояс: GMT + 3



Вы не можете начинать темы
Вы не можете отвечать на сообщения
Вы не можете редактировать свои сообщения
Вы не можете удалять свои сообщения
Вы не можете голосовать в опросах
Вы не можете прикреплять файлы к сообщениям
Вы не можете скачивать файлы