Сегодня идет свободное скачивание без начисления Download

Не кричи "Волки!" / Не зови волков / Never Cry Wolf (Кэррол Бэллард) [1983 г., драма, приключения, DVDRip] P (СВ-Дубль)

Ответить на тему
 
Автор
Сообщение

Region_13 ®

Пол:

Стаж: 2 года 10 месяцев

Сообщений: 923

Откуда: Мальдивы

Торрент-статистика

Пост 13-Ноя-2015 00:53

[Цитировать]

Не кричи "Волки!" / Не зови волков / Never Cry Wolf
Год выпуска: 1983
Страна: США
Жанр: драма, приключения
Продолжительность: 105 мин. / 01:45
Перевод: Профессиональный(дублированный)
Режиссер: Кэррол Бэллард
Продюссер: Джек Коуффер, Джозеф Стрик, Льюис М. Аллен
Сценарий: Кёртис Хэнсон, Сэм Хэмм, Ричард Клеттер
Бюджет: $29 600 000
Премьера в мире: 6 октября 1983
рейтинг PG рекомендуется присутствие родителей


В ролях: Чарльз Мартин Смит, Брайан Деннехи, Хью Уэбстер, Том Дальгрен, Уолкер Стюарт
Описание: Фантастической красоты виды предстают зрителям этого фильма об ученом, который отправился на крайний север изучать повадки диких волков. Здесь есть смешное, много опасного, но главное — это величие природы, на фоне которого происходит перерождение человека.
Качество: DVDRip
Формат: AVI
Видео кодек: XviD
Аудио кодек: AC3
Видео: XviD, 704x384, 1589 Кбит/с
Аудио: Аудио1: Русский: 48 kHz, AC3 Dolby Digital, 2/0 (L,R) ch, ~192 kbps [профессиональный (полное дублирование)]
Аудио: Аудио2 Английский: 48 kHz, AC3 Dolby Digital, 2/0 (L,R) ch, ~192 kbps [оригинал]
Аудио: Аудио3 Французский: 48 kHz, AC3 Dolby Digital, 2/0 (L,R) ch, ~192 kbps [оригинал]
Субтитры: Русские, английские, французские
Перевод: Дублированный - СВ-Дубль

MI

Общее
Полное имя : E:\НЕ КРИЧИ ВОЛКИ\Ne.krichi.Volki.1983.XviD.DVDRip\Ne.krichi.Volki.1983.XviD.DVDRip.avi
Формат : AVI
Формат/Информация : Audio Video Interleave
Размер файла : 1,46 Гбайт
Продолжительность : 1 ч. 45 м.
Общий поток : 1988 Кбит/сек
Программа кодирования : VirtualDubMod 1.5.10.3 | www.virtualdub-fr.org || (build 2550/release)
Библиотека кодирования : VirtualDubMod build 2550/release
Видео
Идентификатор : 0
Формат : MPEG-4 Visual
Профиль формата : Advanced [email protected]
Параметр BVOP формата : 1
Параметр QPel формата : Нет
Параметр GMC формата : Без точки перехода
Параметр матрицы формата : Default (MPEG)
Идентификатор кодека : XVID
Идентификатор кодека/Подсказка : XviD
Продолжительность : 1 ч. 45 м.
Битрейт : 1515 Кбит/сек
Ширина : 704 пикселя
Высота : 384 пикселя
Соотношение сторон : 1,85:1
Частота кадров : 23,976 кадра/сек
Цветовое пространство : YUV
Субдискретизация насыщенности : 4:2:0
Битовая глубина : 8 бит
Тип развёртки : Прогрессивная
Метод сжатия : С потерями
Бит/(Пиксели*Кадры) : 0.234
Размер потока : 1,11 Гбайт (76%)
Библиотека кодирования : XviD 58
Аудио #1
Идентификатор : 1
Формат : AC-3
Формат/Информация : Audio Coding 3
Расширение режима : CM (complete main)
Параметр Endianness формата : Big
Идентификатор кодека : 2000
Продолжительность : 1 ч. 45 м.
Вид битрейта : Постоянный
Битрейт : 192 Кбит/сек
Каналы : 2 канала
Расположение каналов : Front: L R
Частота : 48,0 КГц
Метод сжатия : С потерями
Размер потока : 145 Мбайт (10%)
Выравнивание : Разделение по промежуткам
Аудио #2
Идентификатор : 2
Формат : AC-3
Формат/Информация : Audio Coding 3
Расширение режима : CM (complete main)
Параметр Endianness формата : Big
Идентификатор кодека : 2000
Продолжительность : 1 ч. 45 м.
Вид битрейта : Постоянный
Битрейт : 192 Кбит/сек
Каналы : 2 канала
Расположение каналов : Front: L R
Частота : 48,0 КГц
Метод сжатия : С потерями
Размер потока : 145 Мбайт (10%)
Выравнивание : Разделение по промежуткам

Скриншоты

       

Трейлер


_________________
Вне форума [Профиль] [ЛС]

Геннадич

Пол:

Стаж: 3 года 4 месяца

Сообщений: 4158

Торрент-статистика

Пост 13-Ноя-2015 09:05 (спустя 8 часов)

[Цитировать]

если пишешь в теме - звук (профессиональный (многоголосовый, закадровый)), то на этот случай есть в этой теме https://darkos.club/viewtopic.php?t=22168 кодировки качества звука и как дополнение - пиши что за организация/лицо/лица этот перевод делали. В теме я поправил, обрати внимание

_________________
Вне форума [Профиль] [ЛС]
Показать сообщения:    
Ответить на тему

Текущее время: Сегодня 11:00

Часовой пояс: GMT + 3



Вы не можете начинать темы
Вы не можете отвечать на сообщения
Вы не можете редактировать свои сообщения
Вы не можете удалять свои сообщения
Вы не можете голосовать в опросах
Вы не можете прикреплять файлы к сообщениям
Вы не можете скачивать файлы