Сегодня идет свободное скачивание без начисления Download

Не грози южному централу, попивая сок у себя в квартале / Don't Be a Menace to South Central While Drinking Your Juice in the Hood (West Video) [1996 г., комедия, криминал, BDRip] (West Video)

Ответить на тему
 
Автор
Сообщение

Region_13 ®

Пол:

Стаж: 2 года 10 месяцев

Сообщений: 923

Откуда: Мальдивы

Торрент-статистика

Пост 15-Ноя-2015 19:47

[Цитировать]

Не грози южному централу, попивая сок у себя в квартале / Don't Be a Menace to South Central While Drinking Your Juice in the Hood
Год выпуска: 1996
Страна: США
Жанр: комедия, криминал
Продолжительность: 89 мин. / 01:29
Перевод: Профессиональный (многоголосый закадровый)
Режиссер: Пэрис Барклай
Продюссер: Эрик Л. Голд, Кинен Айвори Уайанс, Марк Бёрг
Сценарий: Шон Уайанс, Марлон Уайанс, Фил Боман
Бюджет: $20 109 115
Премьера в мире: 12 января 1996
лицам до 17 лет обязательно присутствие взрослого


В ролях: Шон Уайанс, Марлон Уайанс, Трэйси Черелл Джонс, Крис Спенсер, Сули МакКалло, Даррел Хит, Хелен Мартин, Айзиа Барнс, Ламард Дж. Тейт, Кинен Айвори Уайанс
Описание: Молодой афроамериканец по прозвищу Пепельница переезжает в Лос-Анджелес со своим отцом и бабушкой. Пепельница гордится тем, что они с отцом выглядят ровесниками, это, по его мнению, «очень круто». Гордится он и своей бабушкой, которая в свои-то преклонные годы покуривает и не стесняется крепких словечек.
Вскоре Пепельница знакомится со своим кузеном по прозвищу Цепной Пес. Этот парень — гангстер, в его личном арсенале не только пистолеты и автомат, но и термоядерная боеголовка — «для самозащиты». Пепельница должен выбрать свой дальнейший путь в жизни: он может быть «просто хорошим чернокожим» или стать «опасным чернокожим», примкнув к банде своего кузена.

Доп. информация

В один из моментов позади главных героев виден рекламный щит с постером фильма «Black to Hood», а дизайн постера пародирует кинотрилогию «Назад в будущее».
В магазине, когда Лок Дог и Пепельница стреляли, за ними висит постер «RoboPimp3», что в переводе «РобоСутенёр3». Оформление постера пародирует фильмы с Робокопом.
После стрельбы в магазине белый мужчина достает блокнот со списком, кого нужно подставить:
Tyson (Майк Тайсон)
M. Jackson (Майкл Джексон)
O. J.(О. Джей Симпсон)
Tupac (2Pac)
Lock Dog (Лок Дог)
За исключением Лок Дога, это знаменитые чёрные, которым в 1990-е были предъявлены обвинения в преступлениях.
В фильме есть следующий эпизод — на помойке валяется труп Элвиса Пресли, или его имитатора, с приспущенными штанами. Очевидно, игра мысли здесь в том, что Пресли считался единственным белым, способным двигаться, как негр.
Качество: BDRip
Формат: MKV
Видео кодек: H.26x
Аудио кодек: AC3
Видео: MPEG-4 AVC, 3500 Кбит/с, 1024x576, 23.976 кадр/с
Аудио: Аудио #1: Русский (AC3, 6 ch, 384 Кбит/с) / Профессиональный многоголосый (West Video)

Скриншоты

                       

MI

Общее
Уникальный идентификатор : 221173559945322775643875794805973746243 (0xA6647A6B59C9E133A42CE6CB72BE8243)
Полное имя : E:\Ne.grozi.jugnomu.centralu.1996.x264.BDRip(AVC)-MediaClub.mkv
Формат : Matroska
Версия формата : Version 4 / Version 2
Размер файла : 3,97 Гбайт
Продолжительность : 1 ч. 29 м.
Общий поток : 6361 Кбит/сек
Дата кодирования : UTC 2015-04-09 17:04:49
Программа кодирования : mkvmerge v7.2.0 ('On Every Street') 32bit built on Sep 13 2014 15:42:11
Библиотека кодирования : libebml v1.3.0 + libmatroska v1.4.1
_STATISTICS_WRITING_APP : mkvmerge v7.2.0 ('On Every Street') 32bit built on Sep 13 2014 15:42:11
_STATISTICS_WRITING_DATE_UTC : 2015-04-09 17:04:49
_STATISTICS_TAGS : BPS DURATION NUMBER_OF_FRAMES NUMBER_OF_BYTES
DURATION : 01:29:26.016000000
NUMBER_OF_FRAMES : 167688
NUMBER_OF_BYTES : 300496896
Видео
Идентификатор : 1
Формат : AVC
Формат/Информация : Advanced Video Codec
Профиль формата : [email protected]
Параметр CABAC формата : Да
Параметр ReFrames формата : 9 кадров
Идентификатор кодека : V_MPEG4/ISO/AVC
Продолжительность : 1 ч. 29 м.
Битрейт : 3500 Кбит/сек
Ширина : 1024 пикселя
Высота : 576 пикселей
Соотношение сторон : 16:9
Режим частоты кадров : Постоянный
Частота кадров : 23,976 кадра/сек
Цветовое пространство : YUV
Субдискретизация насыщенности : 4:2:0
Битовая глубина : 8 бит
Тип развёртки : Прогрессивная
Бит/(Пиксели*Кадры) : 0.247
Размер потока : 2,10 Гбайт (53%)
Заголовок : Ne.grozi.jugnomu.centralu.1996.x264.BDRip(AVC)-neni
Библиотека кодирования : x264 core 130 r2273 b3065e6
Настройки программы : cabac=1 / ref=9 / deblock=1:-2:-2 / analyse=0x3:0x133 / me=umh / subme=11 / psy=1 / psy_rd=1.00:0.15 / mixed_ref=1 / me_range=32 / chroma_me=1 / trellis=2 / 8x8dct=1 / cqm=0 / deadzone=21,11 / fast_pskip=0 / chroma_qp_offset=-3 / threads=6 / lookahead_threads=1 / sliced_threads=0 / nr=0 / decimate=0 / interlaced=0 / bluray_compat=0 / constrained_intra=0 / bframes=8 / b_pyramid=2 / b_adapt=2 / b_bias=0 / direct=3 / weightb=1 / open_gop=0 / weightp=2 / keyint=240 / keyint_min=23 / scenecut=40 / intra_refresh=0 / rc=2pass / mbtree=0 / bitrate=3500 / ratetol=1.0 / qcomp=0.60 / qpmin=0 / qpmax=69 / qpstep=4 / cplxblur=20.0 / qblur=0.5 / ip_ratio=1.40 / pb_ratio=1.30 / aq=1:1.00
Язык : English
Default : Да
Forced : Нет
_STATISTICS_WRITING_APP : mkvmerge v7.2.0 ('On Every Street') 32bit built on Sep 13 2014 15:42:11
_STATISTICS_WRITING_DATE_UTC : 2015-04-09 17:04:49
_STATISTICS_TAGS : BPS DURATION NUMBER_OF_FRAMES NUMBER_OF_BYTES
DURATION : 01:28:52.541000000
NUMBER_OF_FRAMES : 127853
NUMBER_OF_BYTES : 2331849260
Аудио #1
Идентификатор : 2
Формат : AC-3
Формат/Информация : Audio Coding 3
Расширение режима : CM (complete main)
Параметр Endianness формата : Big
Идентификатор кодека : A_AC3
Продолжительность : 1 ч. 29 м.
Вид битрейта : Постоянный
Битрейт : 384 Кбит/сек
Каналы : 6 каналов
Расположение каналов : Front: L C R, Side: L R, LFE
Частота : 48,0 КГц
Метод сжатия : С потерями
Размер потока : 246 Мбайт (6%)
Заголовок : • Русский (AC3, 6 ch, 384 Кбит/с) - ПМ (West Video)
Язык : Russian
Default : Да
Forced : Нет
Аудио #2
Идентификатор : 3
Формат : AC-3
Формат/Информация : Audio Coding 3
Расширение режима : CM (complete main)
Параметр Endianness формата : Big
Идентификатор кодека : A_AC3
Продолжительность : 1 ч. 29 м.
Вид битрейта : Постоянный
Битрейт : 384 Кбит/сек
Каналы : 6 каналов
Расположение каналов : Front: L C R, Side: L R, LFE
Частота : 48,0 КГц
Метод сжатия : С потерями
Размер потока : 246 Мбайт (6%)
Заголовок : • Русский (AC3, 6 ch, 384 Кбит/с) - ПМ (West Video) переиздание
Язык : Russian
Default : Нет
Forced : Нет
Аудио #3
Идентификатор : 4
Формат : AC-3
Формат/Информация : Audio Coding 3
Расширение режима : CM (complete main)
Параметр Endianness формата : Big
Идентификатор кодека : A_AC3
Продолжительность : 1 ч. 29 м.
Вид битрейта : Постоянный
Битрейт : 448 Кбит/сек
Каналы : 6 каналов
Расположение каналов : Front: L C R, Side: L R, LFE
Частота : 48,0 КГц
Метод сжатия : С потерями
Размер потока : 287 Мбайт (7%)
Заголовок : • Русский (AC3, 6 ch, 448 Кбит/с) - АП (Д. Пучков - "Goblin")
Язык : Russian
Default : Нет
Forced : Нет
Аудио #4
Идентификатор : 5
Формат : AC-3
Формат/Информация : Audio Coding 3
Расширение режима : CM (complete main)
Параметр Endianness формата : Big
Идентификатор кодека : A_AC3
Продолжительность : 1 ч. 29 м.
Вид битрейта : Постоянный
Битрейт : 448 Кбит/сек
Каналы : 6 каналов
Расположение каналов : Front: L C R, Side: L R, LFE
Частота : 48,0 КГц
Метод сжатия : С потерями
Размер потока : 287 Мбайт (7%)
Заголовок : • Русский (AC3, 6 ch, 448 Кбит/с) - АП (П. Санаев - "поздний")
Язык : Russian
Default : Нет
Forced : Нет
Аудио #5
Идентификатор : 6
Формат : AC-3
Формат/Информация : Audio Coding 3
Расширение режима : CM (complete main)
Параметр Endianness формата : Big
Идентификатор кодека : A_AC3
Продолжительность : 1 ч. 29 м.
Вид битрейта : Постоянный
Битрейт : 384 Кбит/сек
Каналы : 6 каналов
Расположение каналов : Front: L C R, Side: L R, LFE
Частота : 48,0 КГц
Метод сжатия : С потерями
Размер потока : 246 Мбайт (6%)
Заголовок : • Русский (AC3, 6 ch, 384 Кбит/с) - АП (П. Санаев - "ранний")
Язык : Russian
Default : Нет
Forced : Нет
Аудио #6
Идентификатор : 7
Формат : AC-3
Формат/Информация : Audio Coding 3
Расширение режима : CM (complete main)
Параметр Endianness формата : Big
Идентификатор кодека : A_AC3
Продолжительность : 1 ч. 29 м.
Вид битрейта : Постоянный
Битрейт : 192 Кбит/сек
Каналы : 2 канала
Расположение каналов : Front: L R
Частота : 48,0 КГц
Метод сжатия : С потерями
Размер потока : 123 Мбайт (3%)
Заголовок : • Русский (AC3, 2 ch, 192 Кбит/с) - АП (А. Кашкин)
Язык : Russian
Default : Нет
Forced : Нет
Аудио #7
Идентификатор : 8
Формат : AC-3
Формат/Информация : Audio Coding 3
Расширение режима : CM (complete main)
Параметр Endianness формата : Big
Идентификатор кодека : A_AC3
Продолжительность : 1 ч. 29 м.
Вид битрейта : Постоянный
Битрейт : 192 Кбит/сек
Каналы : 2 канала
Расположение каналов : Front: L R
Частота : 48,0 КГц
Метод сжатия : С потерями
Размер потока : 123 Мбайт (3%)
Заголовок : • Украинский (AC3, 2 ch, 192 Кбит/с) - ПМ (ICTV)
Язык : Ukrainian
Default : Нет
Forced : Нет
Аудио #8
Идентификатор : 9
Формат : AC-3
Формат/Информация : Audio Coding 3
Расширение режима : CM (complete main)
Параметр Endianness формата : Big
Идентификатор кодека : A_AC3
Продолжительность : 1 ч. 29 м.
Вид битрейта : Постоянный
Битрейт : 448 Кбит/сек
Каналы : 6 каналов
Расположение каналов : Front: L C R, Side: L R, LFE
Частота : 48,0 КГц
Метод сжатия : С потерями
Размер потока : 287 Мбайт (7%)
Заголовок : Оригинал
Язык : English
Default : Нет
Forced : Нет
Текст #1
Идентификатор : 10
Формат : UTF-8
Идентификатор кодека : S_TEXT/UTF8
Идентификатор кодека/Информация : UTF-8 Plain Text
Заголовок : CENSORED
Язык : Russian
Default : Нет
Forced : Нет
Текст #2
Идентификатор : 11
Формат : UTF-8
Идентификатор кодека : S_TEXT/UTF8
Идентификатор кодека/Информация : UTF-8 Plain Text
Заголовок : GOBLIN
Язык : Russian
Default : Нет
Forced : Нет
Текст #3
Идентификатор : 12
Формат : UTF-8
Идентификатор кодека : S_TEXT/UTF8
Идентификатор кодека/Информация : UTF-8 Plain Text
Язык : English
Default : Нет
Forced : Нет
Меню
00:00:00.000 : en:00:00:00.000
00:09:19.025 : en:00:09:19.025
00:12:44.998 : en:00:12:44.998
00:19:00.339 : en:00:19:00.339
00:26:09.735 : en:00:26:09.735
00:31:05.797 : en:00:31:05.797
00:36:35.460 : en:00:36:35.460
00:40:58.489 : en:00:40:58.489
00:48:38.415 : en:00:48:38.415
00:53:32.476 : en:00:53:32.476
00:56:08.465 : en:00:56:08.465
01:02:25.108 : en:01:02:25.108
01:09:05.341 : en:01:09:05.341
01:12:58.040 : en:01:12:58.040
01:17:27.142 : en:01:17:27.142

AUDIO

Аудио #2: Русский (AC3, 6 ch, 384 Кбит/с) / Профессиональный многоголосый (West Video (Переиздание))
Аудио #3: Русский (AC3, 6 ch, 448 Кбит/с) / Авторский одноголосый (Д. Пучков - "Goblin")
Аудио #4: Русский (AC3, 6 ch, 448 Кбит/с) / Авторский одноголосый (П. Санаев - "поздний")
Аудио #5: Русский (AC3, 6 ch, 384 Кбит/с) / Авторский одноголосый (П. Санаев - "ранний")
Аудио #6: Русский (AC3, 2 ch, 192 Кбит/с) / Авторский одноголосый (А. Кашкин)
Аудио #7: Украинский (AC3, 2 ch, 192 Кбит/с) / Профессиональный многоголосый (ICTV)
Аудио #8: Английский (AC3, 6 ch, 448 Кбит/с)

_________________
Вне форума [Профиль] [ЛС]
Показать сообщения:    
Ответить на тему

Текущее время: Сегодня 22:51

Часовой пояс: GMT + 3



Вы не можете начинать темы
Вы не можете отвечать на сообщения
Вы не можете редактировать свои сообщения
Вы не можете удалять свои сообщения
Вы не можете голосовать в опросах
Вы не можете прикреплять файлы к сообщениям
Вы не можете скачивать файлы