Сегодня идет свободное скачивание без начисления Download

24 ЧАСА / 24 HOURS (Александр Атанесян) [2000 г., драма, криминал, DVDRip]

Ответить на тему
 
Автор
Сообщение

Region_13 ®

Пол:

Стаж: 2 года 10 месяцев

Сообщений: 923

Откуда: Мальдивы

Торрент-статистика

Пост 16-Ноя-2015 19:23

[Цитировать]

24 ЧАСА / 24 HOURS
Год выпуска: 2000
Страна: Россия
Жанр: драма, криминал
Продолжительность: 86 мин. / 01:26
Перевод: Не требуется
Режиссер: Александр Атанесян
Продюссер: Тамара Фаталиева, Евгений Гиндилис, Игорь Толстунов
Сценарий: Наталья Корецкая
Бюджет: Неизвестно
Премьера в мире: 3 ноября 2000, «НТВ-Профит
зрителям, достигшим 16 лет

В ролях: Андрей Панин, Наталья Рогожкина, Георгий Тараторкин, Михаил Козаков, Дмитрий Мухамадеев, Сергей Новиков, Максим Суханов, Владимир Еремин, Игорь Старыгин, Татьяна Самойлова
Описание: Феликс профессиональный киллер, работающий на заказ. Однажды, он не прислушивается к предупреждениям и берётся за дорогостоящий заказ. Задачей этого заказа становится убийство некого «нефтяника». Феликс идёт на дело и безукоризненно его выполняет. После того как этот «нефтяник» убит, Феликс понимает, что это задание было ошибкой. Он осознаёт, что должен был прислушаться к советам и не убивать заказанного «нефтяника». Однако, уже слишком поздно. Дело сделано, а Феликс теперь в большой опасности…
Качество: DVDRip
Формат: AVI
Видео кодек: XviD
Аудио кодек: AC3
Видео: 1976 Кбит/с, 720x544
Аудио: 6 ch ,448 Кбит/с

Скриншоты

               
   

MEDIAINFO

Общее
Полное имя : E:\24.Tchesa.2000.XviD.DVDRip.avi
Формат : AVI
Формат/Информация : Audio Video Interleave
Размер файла : 1,37 Гбайт
Продолжительность : 1 ч. 20 м.
Общий поток : 2428 Кбит/сек
Программа кодирования : VirtualDubMod 1.5.4.1 (build 2178/release)
Библиотека кодирования : VirtualDubMod build 2178/release
Видео
Идентификатор : 0
Формат : MPEG-4 Visual
Профиль формата : [email protected]
Параметр BVOP формата : 1
Параметр QPel формата : Нет
Параметр GMC формата : Без точки перехода
Параметр матрицы формата : Выборочная
Идентификатор кодека : XVID
Идентификатор кодека/Подсказка : XviD
Продолжительность : 1 ч. 20 м.
Битрейт : 1973 Кбит/сек
Ширина : 720 пикселей
Высота : 544 пикселя
Соотношение сторон : 4:3
Частота кадров : 25,000 кадров/сек
Цветовое пространство : YUV
Субдискретизация насыщенности : 4:2:0
Битовая глубина : 8 бит
Тип развёртки : Прогрессивная
Метод сжатия : С потерями
Бит/(Пиксели*Кадры) : 0.202
Размер потока : 1,11 Гбайт (81%)
Библиотека кодирования : XviD 1.0.3 (UTC 2004-12-20)
Аудио
Идентификатор : 1
Формат : AC-3
Формат/Информация : Audio Coding 3
Расширение режима : CM (complete main)
Параметр Endianness формата : Big
Идентификатор кодека : 2000
Продолжительность : 1 ч. 20 м.
Вид битрейта : Постоянный
Битрейт : 448 Кбит/сек
Каналы : 6 каналов
Channel(s)_Original : 5 каналов
Расположение каналов : Front: L C R, Side: L R
Частота : 48,0 КГц
Метод сжатия : С потерями
Задержка видео : 8 мс.
Размер потока : 258 Мбайт (18%)
Выравнивание : Разделение по промежуткам
Продолжительность промежутка : 96 мс. (2,40 видеокадра)
Время предзагрузки промежутка : 96 мс.

Рекомендации от себя по просмотру фильма

Не известно почему,но на THE KM PLAYER отстают звуковые дорожки,Хорошо справился с файлом Media Player Classic

_________________
Вне форума [Профиль] [ЛС]
Показать сообщения:    
Ответить на тему

Текущее время: Сегодня 20:22

Часовой пояс: GMT + 3



Вы не можете начинать темы
Вы не можете отвечать на сообщения
Вы не можете редактировать свои сообщения
Вы не можете удалять свои сообщения
Вы не можете голосовать в опросах
Вы не можете прикреплять файлы к сообщениям
Вы не можете скачивать файлы