Сегодня идет свободное скачивание без начисления Download

Ребекка / Rebecca (Альфред Хичкок) [1940, триллер, драма, BDRip] MVOx2

Ответить на тему
 
Автор
Сообщение

O.S.A. ®

Пол:

Стаж: 3 года 1 месяц

Сообщений: 4520

Откуда: СССР

Торрент-статистика

Пост 20-Ноя-2015 17:48

[Цитировать]

--Ребекка / Rebecca--
  • Год выпуска: 1940
  • Страна: США / «Selznick International Pictures»
  • Жанр: триллер, драма
  • Продолжительность: 02:10:41
  • Перевод: Профессиональный (многоголосый) х 2 [SomeWax и New Dream Media]-
  • Режиссёр: Альфред Хичкок-
  • В ролях: Лоуренс Оливье, Джоан Фонтейн, Джордж Сэндерс, Джудит Андерсон, Найджел Брюс, Реджинальд Денни, С. Обри Смит, Глэдис Купер, Флоренс Бейтс, Мелвилл Купер...-
  • Максимиллиан Де Уинтер — богатый мужчина, примерно год назад потерявший свою жену, Ребекку. Он приезжает в Монте-Карло, где встречает миссис Ван Хоппер и её юную компаньонку, имя которой мы так и не узнаём. Постепенно Максимиллиан так заинтересовывается молодой девушкой, что в конце-концов женится на ней.
    Новобрачные возвращаются в Мэндэрли, владение семьи Де Уинтеров, но со времени их прибытия новую миссис Де Уинтер подавляют и преследуют напоминания о Ребекке, которые она находит абсолютно во всём, что связано с ее новым домом.
    -
  • Премьера в мире: 27 марта 1940--
  • --
  • Качество видео: BDRip (Исходник: BDRemux)
  • Формат видео: AVI
  • Видео кодек: XviD
  • Аудио кодек: AC3
  • Видео: 704x512 (1.38:1), 23.976 fps, XviD MPEG-4, ~1987 kbps avg, 0.230 bit/pixel
  • Аудио #1: [RUS] 48.0 kHz, AC3 Dolby Digital, 2/0 (L,R) ch, ~192.00 kbps avg
  • Аудио #2: [RUS] 48.0 kHz, AC3 Dolby Digital, 2/0 (L,R) ch, ~192.00 kbps avg
  • Субтитры: нет
--

Media Info

General
Complete name : W:\O.S.A.\Торренты\Завершенные торренты\Rebekka.1940.DUALRUS.BDRip.XviD.AC3.-HQCLUB.avi
Format : AVI
Format/Info : Audio Video Interleave
Format profile : OpenDML
File size : 2.18 GiB
Duration : 2h 10mn
Overall bit rate : 2 389 Kbps
Movie name : Ребекка / Rebecca (1940) BDRip
Director : Flynn82
Genre : триллер, драма, мелодрама, де
Writing application : VirtualDubMod 1.5.10.2 (build 2542/release)
Copyright : http://hqclub.net/
Comment : 23.03.2012
Video
ID : 0
Format : MPEG-4 Visual
Format profile : Advanced [email protected]
Format settings, BVOP : 1
Format settings, QPel : No
Format settings, GMC : No warppoints
Format settings, Matrix : Custom
Codec ID : XVID
Codec ID/Hint : XviD
Duration : 2h 10mn
Bit rate : 1 987 Kbps
Width : 704 pixels
Height : 512 pixels
Display aspect ratio : 1.375
Frame rate : 23.976 fps
Color space : YUV
Chroma subsampling : 4:2:0
Bit depth : 8 bits
Scan type : Progressive
Compression mode : Lossy
Bits/(Pixel*Frame) : 0.230
Stream size : 1.81 GiB (83%)
Writing library : XviD 64
Audio #1
ID : 1
Format : AC-3
Format/Info : Audio Coding 3
Mode extension : CM (complete main)
Codec ID : 2000
Duration : 2h 10mn
Bit rate mode : Constant
Bit rate : 192 Kbps
Channel(s) : 2 channels
Channel positions : Front: L R
Sampling rate : 48.0 KHz
Bit depth : 16 bits
Compression mode : Lossy
Stream size : 179 MiB (8%)
Alignment : Split accross interleaves
Interleave, duration : 42 ms (1.00 video frame)
Interleave, preload duration : 500 ms
Audio #2
ID : 2
Format : AC-3
Format/Info : Audio Coding 3
Mode extension : CM (complete main)
Codec ID : 2000
Duration : 2h 10mn
Bit rate mode : Constant
Bit rate : 192 Kbps
Channel(s) : 2 channels
Channel positions : Front: L R
Sampling rate : 48.0 KHz
Bit depth : 16 bits
Compression mode : Lossy
Stream size : 179 MiB (8%)
Alignment : Split accross interleaves
Interleave, duration : 42 ms (1.00 video frame)
Interleave, preload duration : 500 ms
--        -- --

_________________

===============================
IGNOSCITO SAEPE ALTERI, NUNQUAM TIBI
Вне форума [Профиль] [ЛС]
Показать сообщения:    
Ответить на тему

Текущее время: Сегодня 13:31

Часовой пояс: GMT + 3



Вы не можете начинать темы
Вы не можете отвечать на сообщения
Вы не можете редактировать свои сообщения
Вы не можете удалять свои сообщения
Вы не можете голосовать в опросах
Вы не можете прикреплять файлы к сообщениям
Вы не можете скачивать файлы